Fast Download Mirrors

The Silent Sea (2021-) • TVSeries | S01.1080p.NF.WEB-DL.HIN-ENG-KOR.DDP5.1.Atmos.x264-Telly [20.5GB]

The Silent Sea (2021)
The Silent Sea Adventure, Drama, Mystery, Sci-Fi, Thriller | December 24, 2021 (United States) Summary: During a perilous 24-hour mission on the moon, space explorers try to retrieve samples from an abandoned research facility steeped in classified secrets.
Countries: South KoreaLanguages: Korean

During a perilous 24-hour mission on the moon, space explorers try to retrieve samples from an abandoned research facility steeped in classified secrets.

Mirrors: MirrorAce, MultiUp, Gdrive[GDTOT, Sharer]
Format: MKV
Credits: Telly
Seasons-1 Complete

Download

https://multiup.org/5bc62c43703658a41222d3fc627c0259
https://multiup.org/f411522855004925e5d4977adf516123
https://multiup.org/f1997997aa58565469b1478a1cf02622
https://multiup.org/b36c9a02db2c58744ca996e2b03b05d4
https://multiup.org/161017f1c280f25fa0c22d680df3f23f
https://multiup.org/d321ce51717d69534b9abd0a3a74a974
https://multiup.org/39db02609be870e5865dbb9538858782
https://multiup.org/cdef2b2aaa3ab20bfc81092a8d5413d2

https://mirrorace.org/m/1Khob
https://mirrorace.org/m/1Khof
https://mirrorace.org/m/1Khon
https://mirrorace.org/m/1Khop
https://mirrorace.org/m/1Khot
https://mirrorace.org/m/1Khov
https://mirrorace.org/m/1Khoy
https://mirrorace.org/m/36cjf

https://sharer.pw/file/1vJijoj3FHhx
https://sharer.pw/file/zBvHTzbQUnJK
https://sharer.pw/file/wrZhltQwZbKa
https://sharer.pw/file/u-5yjRLfLU35
https://sharer.pw/file/0_HnRaNxVN1j
https://sharer.pw/file/zkc4r3yLWbzf
https://sharer.pw/file/oHP_Xt4KPkn2
https://sharer.pw/file/MzsHX6D8H2KI

The.Silent.Sea.S01E05.Secret.Storage.1080p.NF.WEB-DL.DDP5.1.Atmos.x264-Telly.mkv - 2.3 GB
https://new.gdtot.eu/file/9873115395

The.Silent.Sea.S01E02.Three.Storages.1080p.NF.WEB-DL.DDP5.1.Atmos.x264-Telly.mkv - 2.69 GB
https://new.gdtot.eu/file/11548276259

The.Silent.Sea.S01E03.Cause.of.Death.1080p.NF.WEB-DL.DDP5.1.Atmos.x264-Telly.mkv - 2.88 GB
https://new.gdtot.eu/file/12379959355

The.Silent.Sea.S01E08.the.Silent.Sea.1080p.NF.WEB-DL.DDP5.1.Atmos.x264-Telly.mkv - 2.9 GB
https://new.gdtot.eu/file/12475400823

The.Silent.Sea.S01E04.the.Truth.Comes.Out.1080p.NF.WEB-DL.DDP5.1.Atmos.x264-Telly.mkv - 2.64 GB
https://new.gdtot.eu/file/11354573339

The.Silent.Sea.S01E01.Balhae.Lunar.Research.Station.1080p.NF.WEB-DL.DDP5.1.Atmos.x264-Telly.mkv - 2.26 GB
https://new.gdtot.eu/file/9720638459

The.Silent.Sea.S01E06.Key.to.Salvation.1080p.NF.WEB-DL.DDP5.1.Atmos.x264-Telly.mkv - 2.54 GB
https://new.gdtot.eu/file/10890533607

The.Silent.Sea.S01E07.Luna.1080p.NF.WEB-DL.DDP5.1.Atmos.x264-Telly.mkv - 2.37 GB
https://new.gdtot.eu/file/10194636311


https://gadrive.cc/file/2468278941
https://gadrive.cc/file/2887069157
https://gadrive.cc/file/3094989931
https://gadrive.cc/file/3118850298
https://gadrive.cc/file/2838643427
https://gadrive.cc/file/2430159707
https://gadrive.cc/file/2722633494
https://gadrive.cc/file/2548659170
General
Unique ID                                : 180474914580312004668432774946572444418 (0x87C63447C4A5D45DC0991C1BF993A302)
Complete name                            : The.Silent.Sea.S01E01.Balhae.Lunar.Research.Station.1080p.NF.WEB-DL.DDP5.1.Atmos.x264-Telly.mkv
Format                                   : Matroska
Format version                           : Version 4
File size                                : 2.26 GiB
Duration                                 : 51 min 12 s
Overall bit rate mode                    : Variable
Overall bit rate                         : 6 328 kb/s
Movie name                               : Telly
Encoded date                             : UTC 2021-12-24 08:24:40
Writing application                      : mkvmerge v61.0.0 ('So') 64-bit
Writing library                          : libebml v1.4.2 + libmatroska v1.6.4

Video
ID                                       : 1
Format                                   : AVC
Format/Info                              : Advanced Video Codec
Format profile                           : High@L4
Format settings                          : CABAC / 4 Ref Frames
Format settings, CABAC                   : Yes
Format settings, Reference frames        : 4 frames
Codec ID                                 : V_MPEG4/ISO/AVC
Duration                                 : 51 min 11 s
Bit rate mode                            : Variable
Bit rate                                 : 4 148 kb/s
Maximum bit rate                         : 20.0 Mb/s
Width                                    : 1 920 pixels
Height                                   : 1 080 pixels
Display aspect ratio                     : 16:9
Frame rate mode                          : Constant
Frame rate                               : 23.976 (24000/1001) FPS
Color space                              : YUV
Chroma subsampling                       : 4:2:0
Bit depth                                : 8 bits
Scan type                                : Progressive
Bits/(Pixel*Frame)                       : 0.083
Stream size                              : 1.48 GiB (66%)
Writing library                          : x264 core 148 r2727 7d026e8
Encoding settings                        : cabac=1 / ref=4 / deblock=1:0:0 / analyse=0x3:0x111 / me=umh / subme=10 / psy=1 / psy_rd=1.00:0.00 / mixed_ref=1 / me_range=120 / chroma_me=1 / trellis=2 / 8x8dct=1 / cqm=0 / deadzone=21,11 / fast_pskip=1 / chroma_qp_offset=-2 / threads=8 / lookahead_threads=2 / sliced_threads=0 / nr=0 / decimate=1 / interlaced=0 / bluray_compat=0 / stitchable=1 / constrained_intra=0 / bframes=16 / b_pyramid=2 / b_adapt=2 / b_bias=0 / direct=3 / weightb=1 / open_gop=0 / weightp=2 / keyint=240 / keyint_min=121 / scenecut=0 / intra_refresh=0 / rc_lookahead=240 / rc=crf / mbtree=1 / crf=16.0 / qcomp=0.50 / qpmin=6 / qpmax=51 / qpstep=4 / vbv_maxrate=20000 / vbv_bufsize=25000 / crf_max=0.0 / nal_hrd=vbr / filler=0 / ip_ratio=1.40 / aq=1:0.80
Default                                  : Yes
Forced                                   : No

Audio #1
ID                                       : 2
Format                                   : E-AC-3
Format/Info                              : Enhanced AC-3
Commercial name                          : Dolby Digital Plus
Codec ID                                 : A_EAC3
Duration                                 : 51 min 12 s
Bit rate mode                            : Constant
Bit rate                                 : 640 kb/s
Channel(s)                               : 6 channels
Channel layout                           : L R C LFE Ls Rs
Sampling rate                            : 48.0 kHz
Frame rate                               : 31.250 FPS (1536 SPF)
Compression mode                         : Lossy
Stream size                              : 234 MiB (10%)
Title                                    : Hindi
Language                                 : Hindi
Service kind                             : Complete Main
Default                                  : Yes
Forced                                   : No

Audio #2
ID                                       : 3
Format                                   : E-AC-3 JOC
Format/Info                              : Enhanced AC-3 with Joint Object Coding
Commercial name                          : Dolby Digital Plus with Dolby Atmos
Codec ID                                 : A_EAC3
Duration                                 : 51 min 11 s
Bit rate mode                            : Constant
Bit rate                                 : 768 kb/s
Channel(s)                               : 6 channels
Channel layout                           : L R C LFE Ls Rs
Sampling rate                            : 48.0 kHz
Frame rate                               : 31.250 FPS (1536 SPF)
Compression mode                         : Lossy
Stream size                              : 281 MiB (12%)
Title                                    : English
Language                                 : English
Service kind                             : Complete Main
Default                                  : No
Forced                                   : No
Complexity index                         : 16
Number of dynamic objects                : 15
Bed channel count                        : 1 channel
Bed channel configuration                : LFE

Audio #3
ID                                       : 4
Format                                   : E-AC-3 JOC
Format/Info                              : Enhanced AC-3 with Joint Object Coding
Commercial name                          : Dolby Digital Plus with Dolby Atmos
Codec ID                                 : A_EAC3
Duration                                 : 51 min 11 s
Bit rate mode                            : Constant
Bit rate                                 : 768 kb/s
Channel(s)                               : 6 channels
Channel layout                           : L R C LFE Ls Rs
Sampling rate                            : 48.0 kHz
Frame rate                               : 31.250 FPS (1536 SPF)
Compression mode                         : Lossy
Stream size                              : 281 MiB (12%)
Title                                    : Korean
Language                                 : Korean
Service kind                             : Complete Main
Default                                  : No
Forced                                   : No
Complexity index                         : 16
Number of dynamic objects                : 15
Bed channel count                        : 1 channel
Bed channel configuration                : LFE

Text #1
ID                                       : 5
Format                                   : UTF-8
Codec ID                                 : S_TEXT/UTF8
Codec ID/Info                            : UTF-8 Plain Text
Duration                                 : 49 min 33 s
Bit rate                                 : 44 b/s
Count of elements                        : 470
Stream size                              : 16.3 KiB (0%)
Title                                    : English
Language                                 : English
Default                                  : No
Forced                                   : No

Text #2
ID                                       : 6
Format                                   : UTF-8
Codec ID                                 : S_TEXT/UTF8
Codec ID/Info                            : UTF-8 Plain Text
Duration                                 : 49 min 34 s
Bit rate                                 : 84 b/s
Count of elements                        : 481
Stream size                              : 30.8 KiB (0%)
Title                                    : Arabic
Language                                 : Arabic
Default                                  : No
Forced                                   : No

Text #3
ID                                       : 7
Format                                   : UTF-8
Codec ID                                 : S_TEXT/UTF8
Codec ID/Info                            : UTF-8 Plain Text
Duration                                 : 49 min 34 s
Bit rate                                 : 43 b/s
Count of elements                        : 495
Stream size                              : 15.7 KiB (0%)
Title                                    : Chinese Simplified
Language                                 : Chinese
Default                                  : No
Forced                                   : No

Text #4
ID                                       : 8
Format                                   : UTF-8
Codec ID                                 : S_TEXT/UTF8
Codec ID/Info                            : UTF-8 Plain Text
Duration                                 : 49 min 34 s
Bit rate                                 : 43 b/s
Count of elements                        : 500
Stream size                              : 15.9 KiB (0%)
Title                                    : Chinese Traditional
Language                                 : Chinese
Default                                  : No
Forced                                   : No

Text #5
ID                                       : 9
Format                                   : UTF-8
Codec ID                                 : S_TEXT/UTF8
Codec ID/Info                            : UTF-8 Plain Text
Duration                                 : 49 min 34 s
Bit rate                                 : 43 b/s
Count of elements                        : 496
Stream size                              : 15.8 KiB (0%)
Title                                    : Croatian
Language                                 : Croatian
Default                                  : No
Forced                                   : No

Text #6
ID                                       : 10
Format                                   : UTF-8
Codec ID                                 : S_TEXT/UTF8
Codec ID/Info                            : UTF-8 Plain Text
Duration                                 : 49 min 34 s
Bit rate                                 : 44 b/s
Count of elements                        : 497
Stream size                              : 16.0 KiB (0%)
Title                                    : Czech
Language                                 : Czech
Default                                  : No
Forced                                   : No

Text #7
ID                                       : 11
Format                                   : UTF-8
Codec ID                                 : S_TEXT/UTF8
Codec ID/Info                            : UTF-8 Plain Text
Duration                                 : 49 min 34 s
Bit rate                                 : 42 b/s
Count of elements                        : 443
Stream size                              : 15.4 KiB (0%)
Title                                    : Danish
Language                                 : Danish
Default                                  : No
Forced                                   : No

Text #8
ID                                       : 12
Format                                   : UTF-8
Codec ID                                 : S_TEXT/UTF8
Codec ID/Info                            : UTF-8 Plain Text
Duration                                 : 49 min 34 s
Bit rate                                 : 42 b/s
Count of elements                        : 487
Stream size                              : 15.6 KiB (0%)
Title                                    : Dutch
Language                                 : Dutch
Default                                  : No
Forced                                   : No

Text #9
ID                                       : 13
Format                                   : UTF-8
Codec ID                                 : S_TEXT/UTF8
Codec ID/Info                            : UTF-8 Plain Text
Duration                                 : 49 min 33 s
Bit rate                                 : 42 b/s
Count of elements                        : 388
Stream size                              : 15.3 KiB (0%)
Title                                    : Finnish
Language                                 : Finnish
Default                                  : No
Forced                                   : No

Text #10
ID                                       : 14
Format                                   : UTF-8
Codec ID                                 : S_TEXT/UTF8
Codec ID/Info                            : UTF-8 Plain Text
Duration                                 : 49 min 34 s
Bit rate                                 : 43 b/s
Count of elements                        : 475
Stream size                              : 15.7 KiB (0%)
Title                                    : French
Language                                 : French
Default                                  : No
Forced                                   : No

Text #11
ID                                       : 15
Format                                   : UTF-8
Codec ID                                 : S_TEXT/UTF8
Codec ID/Info                            : UTF-8 Plain Text
Duration                                 : 49 min 33 s
Bit rate                                 : 48 b/s
Count of elements                        : 495
Stream size                              : 17.4 KiB (0%)
Title                                    : German
Language                                 : German
Default                                  : No
Forced                                   : No

Text #12
ID                                       : 16
Format                                   : UTF-8
Codec ID                                 : S_TEXT/UTF8
Codec ID/Info                            : UTF-8 Plain Text
Duration                                 : 49 min 34 s
Bit rate                                 : 80 b/s
Count of elements                        : 498
Stream size                              : 29.3 KiB (0%)
Title                                    : Greek
Language                                 : Greek
Default                                  : No
Forced                                   : No

Text #13
ID                                       : 17
Format                                   : UTF-8
Codec ID                                 : S_TEXT/UTF8
Codec ID/Info                            : UTF-8 Plain Text
Duration                                 : 49 min 34 s
Bit rate                                 : 69 b/s
Count of elements                        : 497
Stream size                              : 25.4 KiB (0%)
Title                                    : Hebrew
Language                                 : Hebrew
Default                                  : No
Forced                                   : No

Text #14
ID                                       : 18
Format                                   : UTF-8
Codec ID                                 : S_TEXT/UTF8
Codec ID/Info                            : UTF-8 Plain Text
Duration                                 : 49 min 34 s
Bit rate                                 : 47 b/s
Count of elements                        : 496
Stream size                              : 17.3 KiB (0%)
Title                                    : Hungarian
Language                                 : Hungarian
Default                                  : No
Forced                                   : No

Text #15
ID                                       : 19
Format                                   : UTF-8
Codec ID                                 : S_TEXT/UTF8
Codec ID/Info                            : UTF-8 Plain Text
Duration                                 : 49 min 34 s
Bit rate                                 : 47 b/s
Count of elements                        : 489
Stream size                              : 17.1 KiB (0%)
Title                                    : Indonesian
Language                                 : Indonesian
Default                                  : No
Forced                                   : No

Text #16
ID                                       : 20
Format                                   : UTF-8
Codec ID                                 : S_TEXT/UTF8
Codec ID/Info                            : UTF-8 Plain Text
Duration                                 : 49 min 34 s
Bit rate                                 : 50 b/s
Count of elements                        : 496
Stream size                              : 18.2 KiB (0%)
Title                                    : Italian
Language                                 : Italian
Default                                  : No
Forced                                   : No

Text #17
ID                                       : 21
Format                                   : UTF-8
Codec ID                                 : S_TEXT/UTF8
Codec ID/Info                            : UTF-8 Plain Text
Duration                                 : 49 min 33 s
Bit rate                                 : 42 b/s
Count of elements                        : 450
Stream size                              : 15.6 KiB (0%)
Title                                    : Japanese
Language                                 : Japanese
Default                                  : No
Forced                                   : No

Text #18
ID                                       : 22
Format                                   : UTF-8
Codec ID                                 : S_TEXT/UTF8
Codec ID/Info                            : UTF-8 Plain Text
Duration                                 : 49 min 34 s
Bit rate                                 : 79 b/s
Count of elements                        : 709
Stream size                              : 28.7 KiB (0%)
Title                                    : Korean
Language                                 : Korean
Default                                  : No
Forced                                   : No

Text #19
ID                                       : 23
Format                                   : UTF-8
Codec ID                                 : S_TEXT/UTF8
Codec ID/Info                            : UTF-8 Plain Text
Duration                                 : 46 min 36 s
Bit rate                                 : 2 b/s
Count of elements                        : 19
Stream size                              : 884 Bytes (0%)
Title                                    : Korean (Forced)
Language                                 : Korean
Default                                  : No
Forced                                   : Yes

Text #20
ID                                       : 24
Format                                   : UTF-8
Codec ID                                 : S_TEXT/UTF8
Codec ID/Info                            : UTF-8 Plain Text
Duration                                 : 49 min 33 s
Bit rate                                 : 45 b/s
Count of elements                        : 483
Stream size                              : 16.6 KiB (0%)
Title                                    : Malay
Language                                 : Malay
Default                                  : No
Forced                                   : No

Text #21
ID                                       : 25
Format                                   : UTF-8
Codec ID                                 : S_TEXT/UTF8
Codec ID/Info                            : UTF-8 Plain Text
Duration                                 : 49 min 33 s
Bit rate                                 : 42 b/s
Count of elements                        : 445
Stream size                              : 15.5 KiB (0%)
Title                                    : Norwegian Bokmal
Language                                 : Norwegian Bokmal
Default                                  : No
Forced                                   : No

Text #22
ID                                       : 26
Format                                   : UTF-8
Codec ID                                 : S_TEXT/UTF8
Codec ID/Info                            : UTF-8 Plain Text
Duration                                 : 49 min 34 s
Bit rate                                 : 45 b/s
Count of elements                        : 496
Stream size                              : 16.6 KiB (0%)
Title                                    : Portuguese
Language                                 : Portuguese
Default                                  : No
Forced                                   : No

Text #23
ID                                       : 27
Format                                   : UTF-8
Codec ID                                 : S_TEXT/UTF8
Codec ID/Info                            : UTF-8 Plain Text
Duration                                 : 49 min 33 s
Bit rate                                 : 45 b/s
Count of elements                        : 482
Stream size                              : 16.4 KiB (0%)
Title                                    : Brazilian Portuguese
Language                                 : Portuguese
Default                                  : No
Forced                                   : No

Text #24
ID                                       : 28
Format                                   : UTF-8
Codec ID                                 : S_TEXT/UTF8
Codec ID/Info                            : UTF-8 Plain Text
Duration                                 : 49 min 34 s
Bit rate                                 : 46 b/s
Count of elements                        : 497
Stream size                              : 16.9 KiB (0%)
Title                                    : Polish
Language                                 : Polish
Default                                  : No
Forced                                   : No

Text #25
ID                                       : 29
Format                                   : UTF-8
Codec ID                                 : S_TEXT/UTF8
Codec ID/Info                            : UTF-8 Plain Text
Duration                                 : 49 min 34 s
Bit rate                                 : 51 b/s
Count of elements                        : 495
Stream size                              : 18.8 KiB (0%)
Title                                    : Romanian
Language                                 : Romanian
Default                                  : No
Forced                                   : No

Text #26
ID                                       : 30
Format                                   : UTF-8
Codec ID                                 : S_TEXT/UTF8
Codec ID/Info                            : UTF-8 Plain Text
Duration                                 : 49 min 34 s
Bit rate                                 : 77 b/s
Count of elements                        : 497
Stream size                              : 28.0 KiB (0%)
Title                                    : Russian
Language                                 : Russian
Default                                  : No
Forced                                   : No

Text #27
ID                                       : 31
Format                                   : UTF-8
Codec ID                                 : S_TEXT/UTF8
Codec ID/Info                            : UTF-8 Plain Text
Duration                                 : 49 min 34 s
Bit rate                                 : 48 b/s
Count of elements                        : 485
Stream size                              : 17.6 KiB (0%)
Title                                    : Spanish
Language                                 : Spanish
Default                                  : No
Forced                                   : No

Text #28
ID                                       : 32
Format                                   : UTF-8
Codec ID                                 : S_TEXT/UTF8
Codec ID/Info                            : UTF-8 Plain Text
Duration                                 : 49 min 34 s
Bit rate                                 : 43 b/s
Count of elements                        : 485
Stream size                              : 16.0 KiB (0%)
Title                                    : European Spanish
Language                                 : Spanish
Default                                  : No
Forced                                   : No

Text #29
ID                                       : 33
Format                                   : UTF-8
Codec ID                                 : S_TEXT/UTF8
Codec ID/Info                            : UTF-8 Plain Text
Duration                                 : 49 min 34 s
Bit rate                                 : 42 b/s
Count of elements                        : 422
Stream size                              : 15.3 KiB (0%)
Title                                    : Swedish
Language                                 : Swedish
Default                                  : No
Forced                                   : No

Text #30
ID                                       : 34
Format                                   : UTF-8
Codec ID                                 : S_TEXT/UTF8
Codec ID/Info                            : UTF-8 Plain Text
Duration                                 : 49 min 34 s
Bit rate                                 : 131 b/s
Count of elements                        : 497
Stream size                              : 47.6 KiB (0%)
Title                                    : Thai
Language                                 : Thai
Default                                  : No
Forced                                   : No

Text #31
ID                                       : 35
Format                                   : UTF-8
Codec ID                                 : S_TEXT/UTF8
Codec ID/Info                            : UTF-8 Plain Text
Duration                                 : 49 min 34 s
Bit rate                                 : 48 b/s
Count of elements                        : 495
Stream size                              : 17.6 KiB (0%)
Title                                    : Turkish
Language                                 : Turkish
Default                                  : No
Forced                                   : No

Text #32
ID                                       : 36
Format                                   : UTF-8
Codec ID                                 : S_TEXT/UTF8
Codec ID/Info                            : UTF-8 Plain Text
Duration                                 : 49 min 34 s
Bit rate                                 : 78 b/s
Count of elements                        : 499
Stream size                              : 28.6 KiB (0%)
Title                                    : Ukrainian
Language                                 : Ukrainian
Default                                  : No
Forced                                   : No

Text #33
ID                                       : 37
Format                                   : UTF-8
Codec ID                                 : S_TEXT/UTF8
Codec ID/Info                            : UTF-8 Plain Text
Duration                                 : 49 min 34 s
Bit rate                                 : 66 b/s
Count of elements                        : 494
Stream size                              : 24.2 KiB (0%)
Title                                    : Vietnamese
Language                                 : Vietnamese
Default                                  : No
Forced                                   : No

Readme/Password

Password & My Message

Screenshots