Fast Download Mirrors

The Truman Show (1998) • Movie | 2160p.WEB-DL.x265.10bit.HDR.DTS-HD MA.TrueHD.5 1-NOGRP [23.5GB]

The Truman Show 1998
The Truman Show Comedy, Drama | June 5, 1998 (United States) Summary: An insurance salesman discovers his whole life is actually a reality TV show.
Countries: United StatesLanguages: English

Truman Burbank is the star of The Truman Show, a 24-hour-a-day reality TV show that broadcasts every aspect of his life without his knowledge. His entire life has been an unending soap opera for consumption by the rest of the world. And everyone he knows, including his wife and his best friend is really an actor, paid to be part of his life.

Mirrors: GdriveIndex
Format: MKV
Credits: -

Download

General
Unique ID                                : 238368299746326965840326301551848716413 (0xB354108B6C0E736FFEDC11D59ED9F87D)
Complete name                            : D:\Videos\Movies\The Truman Show 1998 2160p WEB-DL x265 10bit HDR DTS-HD MA TrueHD 5 1-NOGRP\The.Truman.Show.1998.2160p.WEB-DL.x265.10bit.HDR.DTS-HD.MA.TrueHD.5.1-NOGRP.mkv
Format                                   : Matroska
Format version                           : Version 4
File size                                : 23.6 GiB
Duration                                 : 1 h 42 min
Overall bit rate mode                    : Variable
Overall bit rate                         : 32.8 Mb/s
Movie name                               : The Truman Show (1998)
Encoded date                             : UTC 2022-01-16 18:27:11
Writing application                      : mkvmerge v63.0.0 ('Everything') 64-bit
Writing library                          : libebml v1.4.2 + libmatroska v1.6.4

Video
ID                                       : 1
Format                                   : HEVC
Format/Info                              : High Efficiency Video Coding
Format profile                           : Main 10@L5@High
HDR format                               : SMPTE ST 2086, HDR10 compatible
Codec ID                                 : V_MPEGH/ISO/HEVC
Duration                                 : 1 h 42 min
Bit rate                                 : 24.4 Mb/s
Width                                    : 3 840 pixels
Height                                   : 2 076 pixels
Display aspect ratio                     : 1.85:1
Frame rate mode                          : Constant
Frame rate                               : 23.976 FPS
Color space                              : YUV
Chroma subsampling                       : 4:2:0 (Type 2)
Bit depth                                : 10 bits
Bits/(Pixel*Frame)                       : 0.128
Stream size                              : 17.5 GiB (74%)
Default                                  : Yes
Forced                                   : No
Color range                              : Limited
Color primaries                          : BT.2020
Transfer characteristics                 : PQ
Matrix coefficients                      : BT.2020 non-constant
Mastering display color primaries        : Display P3
Mastering display luminance              : min: 0.0050 cd/m2, max: 1000 cd/m2
Maximum Content Light Level              : 1363 cd/m2
Maximum Frame-Average Light Level        : 743 cd/m2

Audio #1
ID                                       : 2
Format                                   : MLP FBA
Format/Info                              : Meridian Lossless Packing FBA
Commercial name                          : Dolby TrueHD
Codec ID                                 : A_TRUEHD
Duration                                 : 1 h 42 min
Bit rate mode                            : Variable
Bit rate                                 : 3 672 kb/s
Maximum bit rate                         : 5 148 kb/s
Channel(s)                               : 6 channels
Channel layout                           : L R C LFE Ls Rs
Sampling rate                            : 48.0 kHz
Frame rate                               : 1 200.000 FPS (40 SPF)
Compression mode                         : Lossless
Stream size                              : 2.64 GiB (11%)
Title                                    : TrueHD 5.1
Language                                 : English
Default                                  : Yes
Forced                                   : No

Audio #2
ID                                       : 3
Format                                   : DTS XLL
Format/Info                              : Digital Theater Systems
Commercial name                          : DTS-HD Master Audio
Codec ID                                 : A_DTS
Duration                                 : 1 h 42 min
Bit rate mode                            : Variable
Bit rate                                 : 4 040 kb/s
Channel(s)                               : 6 channels
Channel layout                           : C L R Ls Rs LFE
Sampling rate                            : 48.0 kHz
Frame rate                               : 93.750 FPS (512 SPF)
Bit depth                                : 24 bits
Compression mode                         : Lossless
Stream size                              : 2.90 GiB (12%)
Title                                    : DTS-HD MA 5.1
Language                                 : English
Default                                  : No
Forced                                   : No

Audio #3
ID                                       : 4
Format                                   : AC-3
Format/Info                              : Audio Coding 3
Commercial name                          : Dolby Digital
Codec ID                                 : A_AC3
Duration                                 : 1 h 42 min
Bit rate mode                            : Constant
Bit rate                                 : 640 kb/s
Channel(s)                               : 6 channels
Channel layout                           : L R C LFE Ls Rs
Sampling rate                            : 48.0 kHz
Frame rate                               : 31.250 FPS (1536 SPF)
Compression mode                         : Lossy
Delay relative to video                  : 10 ms
Stream size                              : 471 MiB (2%)
Title                                    : DD 5.1
Language                                 : English
Service kind                             : Complete Main
Default                                  : No
Forced                                   : No

Text #1
ID                                       : 5
Format                                   : UTF-8
Codec ID                                 : S_TEXT/UTF8
Codec ID/Info                            : UTF-8 Plain Text
Duration                                 : 1 h 35 min
Bit rate                                 : 57 b/s
Count of elements                        : 1143
Stream size                              : 40.0 KiB (0%)
Language                                 : English
Default                                  : Yes
Forced                                   : No

Text #2
ID                                       : 6
Format                                   : UTF-8
Codec ID                                 : S_TEXT/UTF8
Codec ID/Info                            : UTF-8 Plain Text
Duration                                 : 1 h 35 min
Bit rate                                 : 58 b/s
Count of elements                        : 1474
Stream size                              : 40.8 KiB (0%)
Title                                    : WEB
Language                                 : English
Default                                  : No
Forced                                   : No

Text #3
ID                                       : 7
Format                                   : UTF-8
Codec ID                                 : S_TEXT/UTF8
Codec ID/Info                            : UTF-8 Plain Text
Duration                                 : 1 h 35 min
Bit rate                                 : 60 b/s
Count of elements                        : 1262
Stream size                              : 42.7 KiB (0%)
Title                                    : SDH
Language                                 : English
Default                                  : No
Forced                                   : No

Text #4
ID                                       : 8
Format                                   : UTF-8
Codec ID                                 : S_TEXT/UTF8
Codec ID/Info                            : UTF-8 Plain Text
Duration                                 : 1 h 35 min
Bit rate                                 : 63 b/s
Count of elements                        : 1629
Stream size                              : 44.3 KiB (0%)
Title                                    : SDH (WEB)
Language                                 : English
Default                                  : No
Forced                                   : No

Text #5
ID                                       : 9
Format                                   : UTF-8
Codec ID                                 : S_TEXT/UTF8
Codec ID/Info                            : UTF-8 Plain Text
Duration                                 : 1 h 35 min
Bit rate                                 : 96 b/s
Count of elements                        : 1145
Stream size                              : 67.8 KiB (0%)
Language                                 : Arabic
Default                                  : No
Forced                                   : No

Text #6
ID                                       : 10
Format                                   : UTF-8
Codec ID                                 : S_TEXT/UTF8
Codec ID/Info                            : UTF-8 Plain Text
Duration                                 : 1 h 35 min
Bit rate                                 : 32 b/s
Count of elements                        : 1029
Stream size                              : 22.9 KiB (0%)
Title                                    : Simplified
Language                                 : Chinese
Default                                  : No
Forced                                   : No

Text #7
ID                                       : 11
Format                                   : UTF-8
Codec ID                                 : S_TEXT/UTF8
Codec ID/Info                            : UTF-8 Plain Text
Duration                                 : 1 h 35 min
Bit rate                                 : 32 b/s
Count of elements                        : 1021
Stream size                              : 22.9 KiB (0%)
Title                                    : Traditional
Language                                 : Chinese
Default                                  : No
Forced                                   : No

Text #8
ID                                       : 12
Format                                   : UTF-8
Codec ID                                 : S_TEXT/UTF8
Codec ID/Info                            : UTF-8 Plain Text
Duration                                 : 1 h 35 min
Bit rate                                 : 54 b/s
Count of elements                        : 1122
Stream size                              : 37.9 KiB (0%)
Language                                 : Czech
Default                                  : No
Forced                                   : No

Text #9
ID                                       : 13
Format                                   : UTF-8
Codec ID                                 : S_TEXT/UTF8
Codec ID/Info                            : UTF-8 Plain Text
Duration                                 : 1 h 35 min
Bit rate                                 : 49 b/s
Count of elements                        : 1135
Stream size                              : 34.7 KiB (0%)
Language                                 : Danish
Default                                  : No
Forced                                   : No

Text #10
ID                                       : 14
Format                                   : UTF-8
Codec ID                                 : S_TEXT/UTF8
Codec ID/Info                            : UTF-8 Plain Text
Duration                                 : 1 h 35 min
Bit rate                                 : 43 b/s
Count of elements                        : 1134
Stream size                              : 30.8 KiB (0%)
Language                                 : Dutch
Default                                  : No
Forced                                   : No

Text #11
ID                                       : 15
Format                                   : UTF-8
Codec ID                                 : S_TEXT/UTF8
Codec ID/Info                            : UTF-8 Plain Text
Duration                                 : 1 h 35 min
Bit rate                                 : 46 b/s
Count of elements                        : 1135
Stream size                              : 32.9 KiB (0%)
Language                                 : Finnish
Default                                  : No
Forced                                   : No

Text #12
ID                                       : 16
Format                                   : UTF-8
Codec ID                                 : S_TEXT/UTF8
Codec ID/Info                            : UTF-8 Plain Text
Duration                                 : 1 h 35 min
Bit rate                                 : 47 b/s
Count of elements                        : 1138
Stream size                              : 33.4 KiB (0%)
Language                                 : French
Default                                  : No
Forced                                   : No

Text #13
ID                                       : 17
Format                                   : UTF-8
Codec ID                                 : S_TEXT/UTF8
Codec ID/Info                            : UTF-8 Plain Text
Duration                                 : 1 h 35 min
Bit rate                                 : 53 b/s
Count of elements                        : 1131
Stream size                              : 37.3 KiB (0%)
Language                                 : German
Default                                  : No
Forced                                   : No

Text #14
ID                                       : 18
Format                                   : UTF-8
Codec ID                                 : S_TEXT/UTF8
Codec ID/Info                            : UTF-8 Plain Text
Duration                                 : 1 h 35 min
Bit rate                                 : 96 b/s
Count of elements                        : 1139
Stream size                              : 67.5 KiB (0%)
Language                                 : Greek
Default                                  : No
Forced                                   : No

Text #15
ID                                       : 19
Format                                   : UTF-8
Codec ID                                 : S_TEXT/UTF8
Codec ID/Info                            : UTF-8 Plain Text
Duration                                 : 1 h 35 min
Bit rate                                 : 135 b/s
Count of elements                        : 1038
Stream size                              : 95.1 KiB (0%)
Language                                 : Hindi
Default                                  : No
Forced                                   : No

Text #16
ID                                       : 20
Format                                   : UTF-8
Codec ID                                 : S_TEXT/UTF8
Codec ID/Info                            : UTF-8 Plain Text
Duration                                 : 1 h 35 min
Bit rate                                 : 79 b/s
Count of elements                        : 1146
Stream size                              : 55.5 KiB (0%)
Language                                 : Hebrew
Default                                  : No
Forced                                   : No

Text #17
ID                                       : 21
Format                                   : UTF-8
Codec ID                                 : S_TEXT/UTF8
Codec ID/Info                            : UTF-8 Plain Text
Duration                                 : 1 h 35 min
Bit rate                                 : 56 b/s
Count of elements                        : 1130
Stream size                              : 39.9 KiB (0%)
Language                                 : Hungarian
Default                                  : No
Forced                                   : No

Text #18
ID                                       : 22
Format                                   : UTF-8
Codec ID                                 : S_TEXT/UTF8
Codec ID/Info                            : UTF-8 Plain Text
Duration                                 : 1 h 35 min
Bit rate                                 : 48 b/s
Count of elements                        : 696
Stream size                              : 34.0 KiB (0%)
Language                                 : Icelandic
Default                                  : No
Forced                                   : No

Text #19
ID                                       : 23
Format                                   : UTF-8
Codec ID                                 : S_TEXT/UTF8
Codec ID/Info                            : UTF-8 Plain Text
Duration                                 : 1 h 42 min
Bit rate                                 : 51 b/s
Count of elements                        : 982
Stream size                              : 38.3 KiB (0%)
Language                                 : Indonesian
Default                                  : No
Forced                                   : No

Text #20
ID                                       : 24
Format                                   : UTF-8
Codec ID                                 : S_TEXT/UTF8
Codec ID/Info                            : UTF-8 Plain Text
Duration                                 : 1 h 35 min
Bit rate                                 : 53 b/s
Count of elements                        : 1135
Stream size                              : 37.6 KiB (0%)
Language                                 : Italian
Default                                  : No
Forced                                   : No

Text #21
ID                                       : 25
Format                                   : UTF-8
Codec ID                                 : S_TEXT/UTF8
Codec ID/Info                            : UTF-8 Plain Text
Duration                                 : 1 h 35 min
Bit rate                                 : 37 b/s
Count of elements                        : 1004
Stream size                              : 26.2 KiB (0%)
Language                                 : Japanese
Default                                  : No
Forced                                   : No

Text #22
ID                                       : 26
Format                                   : UTF-8
Codec ID                                 : S_TEXT/UTF8
Codec ID/Info                            : UTF-8 Plain Text
Duration                                 : 1 h 35 min
Bit rate                                 : 48 b/s
Count of elements                        : 1141
Stream size                              : 34.3 KiB (0%)
Language                                 : Korean
Default                                  : No
Forced                                   : No

Text #23
ID                                       : 27
Format                                   : UTF-8
Codec ID                                 : S_TEXT/UTF8
Codec ID/Info                            : UTF-8 Plain Text
Duration                                 : 1 h 42 min
Bit rate                                 : 50 b/s
Count of elements                        : 1041
Stream size                              : 37.7 KiB (0%)
Language                                 : Malay
Default                                  : No
Forced                                   : No

Text #24
ID                                       : 28
Format                                   : UTF-8
Codec ID                                 : S_TEXT/UTF8
Codec ID/Info                            : UTF-8 Plain Text
Duration                                 : 1 h 35 min
Bit rate                                 : 50 b/s
Count of elements                        : 1116
Stream size                              : 35.2 KiB (0%)
Language                                 : Norwegian Bokmal
Default                                  : No
Forced                                   : No

Text #25
ID                                       : 29
Format                                   : UTF-8
Codec ID                                 : S_TEXT/UTF8
Codec ID/Info                            : UTF-8 Plain Text
Duration                                 : 1 h 35 min
Bit rate                                 : 48 b/s
Count of elements                        : 1136
Stream size                              : 33.7 KiB (0%)
Language                                 : Norwegian
Default                                  : No
Forced                                   : No

Text #26
ID                                       : 30
Format                                   : UTF-8
Codec ID                                 : S_TEXT/UTF8
Codec ID/Info                            : UTF-8 Plain Text
Duration                                 : 1 h 35 min
Bit rate                                 : 50 b/s
Count of elements                        : 1137
Stream size                              : 35.5 KiB (0%)
Language                                 : Polish
Default                                  : No
Forced                                   : No

Text #27
ID                                       : 31
Format                                   : UTF-8
Codec ID                                 : S_TEXT/UTF8
Codec ID/Info                            : UTF-8 Plain Text
Duration                                 : 1 h 35 min
Bit rate                                 : 50 b/s
Count of elements                        : 893
Stream size                              : 35.3 KiB (0%)
Language                                 : Portuguese
Default                                  : No
Forced                                   : No

Text #28
ID                                       : 32
Format                                   : UTF-8
Codec ID                                 : S_TEXT/UTF8
Codec ID/Info                            : UTF-8 Plain Text
Duration                                 : 1 h 35 min
Bit rate                                 : 49 b/s
Count of elements                        : 1136
Stream size                              : 34.4 KiB (0%)
Title                                    : Brazilian
Language                                 : Portuguese
Default                                  : No
Forced                                   : No

Text #29
ID                                       : 33
Format                                   : UTF-8
Codec ID                                 : S_TEXT/UTF8
Codec ID/Info                            : UTF-8 Plain Text
Duration                                 : 1 h 35 min
Bit rate                                 : 58 b/s
Count of elements                        : 1142
Stream size                              : 41.3 KiB (0%)
Language                                 : Romanian
Default                                  : No
Forced                                   : No

Text #30
ID                                       : 34
Format                                   : UTF-8
Codec ID                                 : S_TEXT/UTF8
Codec ID/Info                            : UTF-8 Plain Text
Duration                                 : 1 h 37 min
Bit rate                                 : 95 b/s
Count of elements                        : 1147
Stream size                              : 67.9 KiB (0%)
Language                                 : Russian
Default                                  : No
Forced                                   : No

Text #31
ID                                       : 35
Format                                   : UTF-8
Codec ID                                 : S_TEXT/UTF8
Codec ID/Info                            : UTF-8 Plain Text
Duration                                 : 1 h 37 min
Bit rate                                 : 54 b/s
Count of elements                        : 1135
Stream size                              : 38.9 KiB (0%)
Language                                 : Spanish
Default                                  : No
Forced                                   : No

Text #32
ID                                       : 36
Format                                   : UTF-8
Codec ID                                 : S_TEXT/UTF8
Codec ID/Info                            : UTF-8 Plain Text
Duration                                 : 1 h 35 min
Bit rate                                 : 54 b/s
Count of elements                        : 1137
Stream size                              : 37.9 KiB (0%)
Title                                    : Latin American
Language                                 : Spanish
Default                                  : No
Forced                                   : No

Text #33
ID                                       : 37
Format                                   : UTF-8
Codec ID                                 : S_TEXT/UTF8
Codec ID/Info                            : UTF-8 Plain Text
Duration                                 : 1 h 35 min
Bit rate                                 : 46 b/s
Count of elements                        : 1137
Stream size                              : 32.4 KiB (0%)
Language                                 : Swedish
Default                                  : No
Forced                                   : No

Text #34
ID                                       : 38
Format                                   : UTF-8
Codec ID                                 : S_TEXT/UTF8
Codec ID/Info                            : UTF-8 Plain Text
Duration                                 : 1 h 35 min
Bit rate                                 : 93 b/s
Count of elements                        : 924
Stream size                              : 65.6 KiB (0%)
Language                                 : Thai
Default                                  : No
Forced                                   : No

Text #35
ID                                       : 39
Format                                   : UTF-8
Codec ID                                 : S_TEXT/UTF8
Codec ID/Info                            : UTF-8 Plain Text
Duration                                 : 1 h 35 min
Bit rate                                 : 56 b/s
Count of elements                        : 1138
Stream size                              : 39.7 KiB (0%)
Language                                 : Turkish
Default                                  : No
Forced                                   : No

Text #36
ID                                       : 40
Format                                   : UTF-8
Codec ID                                 : S_TEXT/UTF8
Codec ID/Info                            : UTF-8 Plain Text
Duration                                 : 1 h 42 min
Bit rate                                 : 85 b/s
Count of elements                        : 981
Stream size                              : 64.1 KiB (0%)
Language                                 : Ukrainian
Default                                  : No
Forced                                   : No

Text #37
ID                                       : 41
Format                                   : UTF-8
Codec ID                                 : S_TEXT/UTF8
Codec ID/Info                            : UTF-8 Plain Text
Duration                                 : 1 h 35 min
Bit rate                                 : 79 b/s
Count of elements                        : 1135
Stream size                              : 55.9 KiB (0%)
Language                                 : Vietnamese
Default                                  : No
Forced                                   : No

Menu
00:00:00.000                             : en:A Day in a Life
00:02:41.620                             : en:Day 10909
00:06:48.366                             : en:Aquaphobia
00:09:05.795                             : en:The Chef's Pal
00:09:42.540                             : en:Dreaming of Fiji
00:11:30.440                             : en:Memories of Dad
00:17:13.783                             : en:"Lauren"... or is it Sylvia?
00:29:28.308                             : en:Paranoia
00:36:57.298                             : en:There's No Place Like Home
00:42:33.009                             : en:Travelers Beware
00:45:40.196                             : en:Lady... Flowers... Dented Beetle
00:47:42.902                             : en:"I'm Being Spontaneous!"
00:51:11.527                             : en:Blocked at Every Turn
00:52:55.714                             : en:Mococoa - It's the Best
00:55:22.110                             : en:Father and Son Reunion
01:01:01.324                             : en:Trutalk
01:09:57.068                             : en:Do You Think He Knows?
01:13:19.979                             : en:"He's gone."
01:21:00.439                             : en:Setting Sail
01:23:21.830                             : en:Cue the Storm
01:27:43.174                             : en:The Sky's the Limit
01:31:50.296                             : en:"Who am I?"
01:34:42.301                             : en:Good Afternoon, Good Evening, and Good Night
01:35:59.837                             : en:End Credits


Readme/Password

Password & My Message

Screenshots