Fast Download Mirrors

This Is Us (2016-2022) • TVSeries | S06E06.Our.Little.Island.Girl.Part.Two.1080p.AMZN.WEB-DL.DDP5.1.H.264-NTb [2.88 GB]

This Is Us Comedy, Drama, Romance | September 20, 2016 (United States) Summary: A heartwarming and emotional story about a unique set of triplets, their struggles and their wonderful parents.
Countries: United StatesLanguages: English

A heartwarming and emotional story about a unique set of triplets, their struggles and their wonderful parents.

Mirrors: GDrive [Gadrive, GDToT, Index, Sharer], MultiUp
Format: MKV
Credits: NTb
Seasons: Ongoing

Download

General
Unique ID                                : 140661302320717604164391638202785422185 (0x69D261A473DDCD122E9A6466C00F5B69)
Complete name                            : This.Is.Us.S06E06.Our.Little.Island.Girl.Part.Two.1080p.AMZN.WEB-DL.DDP5.1.H.264-NTb.mkv
Format                                   : Matroska
Format version                           : Version 4
File size                                : 2.88 GiB
Duration                                 : 43 min 3 s
Overall bit rate                         : 9 571 kb/s
Writing application                      : mkvmerge v64.0.0 ('Willows') 64-bit
Writing library                          : libebml v1.4.2 + libmatroska v1.6.4

Video
ID                                       : 1
Format                                   : AVC
Format/Info                              : Advanced Video Codec
Format profile                           : High@L4
Format settings                          : CABAC / 4 Ref Frames
Format settings, CABAC                   : Yes
Format settings, Reference frames        : 4 frames
Codec ID                                 : V_MPEG4/ISO/AVC
Duration                                 : 43 min 3 s
Bit rate mode                            : Constant
Bit rate                                 : 8 929 kb/s
Nominal bit rate                         : 10 000 kb/s
Width                                    : 1 920 pixels
Height                                   : 1 080 pixels
Display aspect ratio                     : 16:9
Frame rate mode                          : Constant
Frame rate                               : 23.976 (24000/1001) FPS
Color space                              : YUV
Chroma subsampling                       : 4:2:0
Bit depth                                : 8 bits
Scan type                                : Progressive
Bits/(Pixel*Frame)                       : 0.180
Stream size                              : 2.69 GiB (93%)
Default                                  : Yes
Forced                                   : No
Color range                              : Limited
Color primaries                          : BT.709
Transfer characteristics                 : BT.709
Matrix coefficients                      : BT.709

Audio
ID                                       : 2
Format                                   : E-AC-3
Format/Info                              : Enhanced AC-3
Commercial name                          : Dolby Digital Plus
Codec ID                                 : A_EAC3
Duration                                 : 43 min 3 s
Bit rate mode                            : Constant
Bit rate                                 : 640 kb/s
Channel(s)                               : 6 channels
Channel layout                           : L R C LFE Ls Rs
Sampling rate                            : 48.0 kHz
Frame rate                               : 31.250 FPS (1536 SPF)
Compression mode                         : Lossy
Stream size                              : 197 MiB (7%)
Language                                 : English
Service kind                             : Complete Main
Default                                  : Yes
Forced                                   : No

Text #1
ID                                       : 3
Format                                   : UTF-8
Codec ID                                 : S_TEXT/UTF8
Codec ID/Info                            : UTF-8 Plain Text
Duration                                 : 43 min 1 s
Bit rate                                 : 80 b/s
Count of elements                        : 792
Stream size                              : 25.4 KiB (0%)
Language                                 : English
Default                                  : No
Forced                                   : No

Text #2
ID                                       : 4
Format                                   : UTF-8
Codec ID                                 : S_TEXT/UTF8
Codec ID/Info                            : UTF-8 Plain Text
Duration                                 : 43 min 1 s
Bit rate                                 : 86 b/s
Count of elements                        : 840
Stream size                              : 27.3 KiB (0%)
Title                                    : SDH
Language                                 : English
Default                                  : No
Forced                                   : No

Readme/Password

Password & My Message