Fast Download Mirrors

Utopia (2013-2014) • TVSeries | BluRay

Utopia (2013-2014) • TVSeries | BluRay
Utopia 3000min | Drama, Mystery, Sci-Fi, Thriller | January 15, 2013 (United States) Summary: After a group of people, who meet online, discover a bizarre graphic novel which seems to hold mysterious answers, they find themselves being tracked down by a merciless organization known m... Read all
Countries: United KingdomLanguages: English

After a group of people, who meet online, discover a bizarre graphic novel which seems to hold mysterious answers, they find themselves being tracked down by a merciless organization known merely as ‘The Network’.

Mirrors: Gdrive Index, Gdrive[GDTOT]
Format: MKV
Credits: QxR Group

Download

General
Format : Matroska
Format version : Version 4 / Version 2
File size : 1.16 GiB
Duration : 59 min 54 s
Overall bit rate : 2 765 kb/s
Movie name : Utopia S01E01
Encoded date : UTC 2018-03-29 18:57:01
Writing application : mkvmerge v9.6.0 ('Slave To Your Mind') 64bit
Writing library : libebml v1.3.4 + libmatroska v1.4.5
Writing frontend : StaxRip 1.5.0.0

Video
ID : 1
Format : HEVC
Format/Info : High Efficiency Video Coding
Format profile : Main 10@L4@Main
Codec ID : V_MPEGH/ISO/HEVC
Duration : 59 min 54 s
Bit rate : 2 512 kb/s
Width : 1 920 pixels
Height : 808 pixels
Display aspect ratio : 2.40:1
Frame rate mode : Constant
Frame rate : 25.000 FPS
Color space : YUV
Chroma subsampling : 4:2:0
Bit depth : 10 bits
Bits/(Pixel*Frame) : 0.065
Stream size : 1.05 GiB (91%)
Writing library : x265 2.7+1-2aa737a99f51:[Windows][MSVC 1900][64 bit] 10bit
Encoding settings : cpuid=1173503 / frame-threads=2 / numa-pools=4 / wpp / no-pmode / no-pme / no-psnr / no-ssim / log-level=2 / input-csp=1 / input-res=1920x808 / interlace=0 / total-frames=89850 / level-idc=0 / high-tier=1 / uhd-bd=0 / ref=5 / no-allow-non-conformance / no-repeat-headers / annexb / no-aud / no-hrd / info / hash=0 / no-temporal-layers / open-gop / min-keyint=25 / keyint=250 / gop-lookahead=0 / bframes=8 / b-adapt=2 / b-pyramid / bframe-bias=0 / rc-lookahead=120 / lookahead-slices=4 / scenecut=40 / radl=0 / no-intra-refresh / ctu=64 / min-cu-size=8 / rect / no-amp / max-tu-size=32 / tu-inter-depth=1 / tu-intra-depth=1 / limit-tu=0 / rdoq-level=2 / dynamic-rd=0.00 / no-ssim-rd / signhide / no-tskip / nr-intra=0 / nr-inter=0 / no-constrained-intra / strong-intra-smoothing / max-merge=3 / limit-refs=3 / limit-modes / me=3 / subme=5 / merange=57 / temporal-mvp / weightp / weightb / no-analyze-src-pics / deblock=-3:-3 / no-sao / no-sao-non-deblock / rd=4 / no-early-skip / no-rskip / no-fast-intra / no-tskip-fast / no-cu-lossless / no-b-intra / no-splitrd-skip / rdpenalty=0 / psy-rd=1.30 / psy-rdoq=1.30 / no-rd-refine / no-lossless / cbqpoffs=0 / crqpoffs=0 / rc=crf / crf=20.5 / qcomp=0.60 / qpstep=4 / stats-write=0 / stats-read=0 / ipratio=1.40 / pbratio=1.30 / aq-mode=2 / aq-strength=1.00 / cutree / zone-count=0 / no-strict-cbr / qg-size=32 / no-rc-grain / qpmax=69 / qpmin=0 / no-const-vbv / sar=0 / overscan=0 / videoformat=5 / range=0 / colorprim=2 / transfer=2 / colormatrix=2 / chromaloc=0 / display-window=0 / max-cll=0,0 / min-luma=0 / max-luma=1023 / log2-max-poc-lsb=8 / vui-timing-info / vui-hrd-info / slices=1 / no-opt-qp-pps / no-opt-ref-list-length-pps / no-multi-pass-opt-rps / scenecut-bias=0.05 / no-opt-cu-delta-qp / no-aq-motion / no-hdr / no-hdr-opt / no-dhdr10-opt / analysis-reuse-level=5 / scale-factor=0 / refine-intra=0 / refine-inter=0 / refine-mv=0 / no-limit-sao / ctu-info=0 / no-lowpass-dct / refine-mv-type=0 / copy-pic=1
Default : Yes
Forced : No

Audio #1
ID : 2
Format : AAC
Format/Info : Advanced Audio Codec
Format profile : LC
Codec ID : A_AAC
Duration : 59 min 53 s
Bit rate : 160 kb/s
Channel(s) : 2 channels
Channel positions : Front: L R
Sampling rate : 48.0 kHz
Frame rate : 46.875 FPS (1024 spf)
Compression mode : Lossy
Delay relative to video : 20 ms
Stream size : 68.6 MiB (6%)
Language : English
Default : Yes
Forced : No

Audio #2
ID : 3
Format : AAC
Format/Info : Advanced Audio Codec
Format profile : LC
Codec ID : A_AAC
Duration : 59 min 53 s
Bit rate : 77.6 kb/s
Channel(s) : 2 channels
Channel positions : Front: L R
Sampling rate : 48.0 kHz
Frame rate : 46.875 FPS (1024 spf)
Compression mode : Lossy
Delay relative to video : 9 ms
Stream size : 33.3 MiB (3%)
Language : English
Default : No
Forced : No

Subtitle #1
ID : 4
Format : PGS
Muxing mode : zlib
Codec ID : S_HDMV/PGS
Codec ID/Info : Picture based subtitle format used on BDs/HD-DVDs
Duration : 1 min 27 s
Bit rate : 7 652 b/s
Count of elements : 33
Stream size : 81.3 KiB (0%)
Language : English
Default : No
Forced : No

Subtitle #2
ID : 5
Format : PGS
Muxing mode : zlib
Codec ID : S_HDMV/PGS
Codec ID/Info : Picture based subtitle format used on BDs/HD-DVDs
Duration : 58 min 48 s
Bit rate : 12.2 kb/s
Count of elements : 1408
Stream size : 5.13 MiB (0%)
Language : English
Default : No
Forced : No

Menu
00:00:00.000 : en:Chapter 1
00:07:57.320 : en:Chapter 2
00:19:24.320 : en:Chapter 3
00:29:24.040 : en:Chapter 4
00:41:40.480 : en:Chapter 5
00:53:48.080 : en:Chapter 6

Source:
Utopia.S01-S02.COMPLETE.1080i.BluRay.REMUX.AVC.DTS-HD.MA.2.0-FraMeSToR
Password

Password & My Message

Files List
Utopia (2013) Season 1-2 S01-S02 + Extras (1080p BluRay x265 HEVC 10bit AAC 2.0 Silence)
Season 2
Utopia (2013) - S02E01 - Episode 1 (1080p BluRay x265 Silence).mkv (1.3 GB)
Utopia (2013) - S02E02 - Episode 2 (1080p BluRay x265 Silence).mkv (920.1 MB)
Utopia (2013) - S02E03 - Episode 3 (1080p BluRay x265 Silence).mkv (1.0 GB)
Utopia (2013) - S02E04 - Episode 4 (1080p BluRay x265 Silence).mkv (857.6 MB)
Utopia (2013) - S02E05 - Episode 5 (1080p BluRay x265 Silence).mkv (887.9 MB)
Utopia (2013) - S02E06 - Episode 6 (1080p BluRay x265 Silence).mkv (887.1 MB)
Season 1
Featurettes
Deleted Scenes.mkv (318.2 MB)
Fly on the Wall.mkv (247.9 MB)
The World of Utopia.mkv (231.7 MB)
Analysis of Stunt Scene.mkv (299.8 MB)
Utopia (2013) - S01E01 - Episode 1 (1080p BluRay x265 Silence).mkv (1.2 GB)
Utopia (2013) - S01E02 - Episode 2 (1080p BluRay x265 Silence).mkv (1.0 GB)
Utopia (2013) - S01E03 - Episode 3 (1080p BluRay x265 Silence).mkv (1.2 GB)
Utopia (2013) - S01E04 - Episode 4 (1080p BluRay x265 Silence).mkv (822.8 MB)
Utopia (2013) - S01E05 - Episode 5 (1080p BluRay x265 Silence).mkv (941.3 MB)
Utopia (2013) - S01E06 - Episode 6 (1080p BluRay x265 Silence).mkv (1.3 GB)