Fast Download Mirrors

Warning (2021) • Movie | 1080p.BluRay.REMUX.AVC.DTS-HD.MA.5.1-TRiToN [19.7GB]

Warning (2021) • Movie
Warning 85min | Sci-Fi, Thriller | October 22, 2021 (United States) Summary: The meaning of life explored through multiple interconnected lives set in the near future.
Countries: Canada, United StatesLanguages: English

Loneliness, death and the meaning of life, explored through vastly separate lives colliding in interweaving short stories set in future Earth.

Mirrors: 1fichier, MultiUp, Gdrive[GDTOT, Sharer], Gdrive Index
Format: MKV
Credits: TRiToN

Download

General
Complete name                            : Warning 2021 1080p BluRay REMUX AVC DTS-HD MA 5.1-TRiToN.mkv
Format                                   : Matroska
Format version                           : Version 4 / Version 2
File size                                : 19.8 GiB
Duration                                 : 1 h 25 min
Overall bit rate mode                    : Variable
Overall bit rate                         : 33.1 Mb/s
Movie name                               : Warning (2021)
Encoded date                             : UTC 2021-10-24 17:50:38
Writing application                      : mkvmerge v62.0.0 ('Apollo') 64-bit
Writing library                          : libebml v1.4.2 + libmatroska v1.6.4
IMDB                                     : tt8956324
TMDB                                     : movie/583081

Video
ID                                       : 1
Format                                   : AVC
Format/Info                              : Advanced Video Codec
Format profile                           : High@L4.1
Format settings                          : CABAC / 4 Ref Frames
Format settings, CABAC                   : Yes
Format settings, ReFrames                : 4 frames
Codec ID                                 : V_MPEG4/ISO/AVC
Duration                                 : 1 h 25 min
Bit rate mode                            : Variable
Bit rate                                 : 29.9 Mb/s
Maximum bit rate                         : 37.0 Mb/s
Width                                    : 1 920 pixels
Height                                   : 1 080 pixels
Display aspect ratio                     : 16:9
Frame rate mode                          : Constant
Frame rate                               : 23.976 (24000/1001) FPS
Color space                              : YUV
Chroma subsampling                       : 4:2:0
Bit depth                                : 8 bits
Scan type                                : Progressive
Bits/(Pixel*Frame)                       : 0.601
Stream size                              : 17.9 GiB (90%)
Title                                    : MPEG-4 AVC Video / 31642 kbps / 1080p / 23.976 fps / 16:9 / High Profile 4.1
Language                                 : English
Default                                  : Yes
Forced                                   : No

Audio
ID                                       : 2
Format                                   : DTS
Format/Info                              : Digital Theater Systems
Format profile                           : MA / Core
Codec ID                                 : A_DTS
Duration                                 : 1 h 25 min
Bit rate mode                            : Variable / Constant
Bit rate                                 : 3 072 kb/s / 1 509 kb/s
Channel(s)                               : 6 channels
Channel positions                        : Front: L C R, Side: L R, LFE
Sampling rate                            : 48.0 kHz
Frame rate                               : 93.750 FPS (512 SPF)
Bit depth                                : 24 bits
Compression mode                         : Lossless / Lossy
Stream size                              : 1.86 GiB (9%)
Title                                    : DTS-HD Master Audio / 5.1 / 48 kHz / 3115 kbps / 24-bit
Language                                 : English
Default                                  : Yes
Forced                                   : No

Text #1
ID                                       : 3
Format                                   : PGS
Codec ID                                 : S_HDMV/PGS
Codec ID/Info                            : Picture based subtitle format used on BDs/HD-DVDs
Duration                                 : 1 h 18 min
Bit rate                                 : 33.3 kb/s
Count of elements                        : 2044
Stream size                              : 18.7 MiB (0%)
Title                                    : SDH
Language                                 : English
Default                                  : No
Forced                                   : No

Text #2
ID                                       : 4
Format                                   : PGS
Codec ID                                 : S_HDMV/PGS
Codec ID/Info                            : Picture based subtitle format used on BDs/HD-DVDs
Duration                                 : 1 h 22 min
Bit rate                                 : 26.6 kb/s
Count of elements                        : 1678
Stream size                              : 15.8 MiB (0%)
Title                                    : Latin American
Language                                 : Spanish
Default                                  : No
Forced                                   : No

Menu
00:00:00.000                             : en:Chapter 01
00:04:18.633                             : en:Chapter 02
00:08:46.985                             : en:Chapter 03
00:13:54.667                             : en:Chapter 04
00:19:49.855                             : en:Chapter 05
00:23:20.566                             : en:Chapter 06
00:26:17.826                             : en:Chapter 07
00:30:25.365                             : en:Chapter 08
00:35:05.520                             : en:Chapter 09
00:43:54.674                             : en:Chapter 10
00:48:34.537                             : en:Chapter 11
00:54:31.351                             : en:Chapter 12
00:59:13.216                             : en:Chapter 13
01:04:56.351                             : en:Chapter 14
01:13:07.466                             : en:Chapter 15
01:17:13.629                             : en:Chapter 16

Readme/Password

Password & My Message

Screenshots