Fast Download Mirrors

West Side Story (2021) • Movie | 1080p.Remux.AVC.DTS-HD.MA.7.1-playBD [29.54 GB]

West Side Story Crime, Drama, Musical, Romance | December 10, 2021 (United States) Summary: An adaptation of the 1957 musical, West Side Story explores forbidden love and the rivalry between the Jets and the Sharks, two teenage street gangs of different ethnic backgrounds.
Countries: United StatesLanguages: English, Spanish

Two youngsters from rival New York City gangs fall in love, but tensions between their respective friends build toward tragedy.

Mirrors: GDrive [Gadrive, GDToT, Index, Sharer], MultiUp
Format: MKV
Credits: playBD

Download

General
Unique ID                                : 107110770039396144871473116813789724871 (0x5094C8B031F62FF51B9CF334EA6F80C7)
Complete name                            : West.Side.Story.2021.1080p.Remux.AVC.DTS-HD.MA.7.1-playBD.mkv
Format                                   : Matroska
Format version                           : Version 4
File size                                : 29.5 GiB
Duration                                 : 2 h 36 min
Overall bit rate mode                    : Variable
Overall bit rate                         : 27.0 Mb/s
Encoded date                             : UTC 2022-02-23 23:59:57
Writing application                      : mkvmerge v64.0.0 ('Willows') 64-bit
Writing library                          : libebml v1.4.2 + libmatroska v1.6.4

Video
ID                                       : 2
Format                                   : AVC
Format/Info                              : Advanced Video Codec
Format profile                           : High@L4.1
Format settings                          : CABAC / 4 Ref Frames
Format settings, CABAC                   : Yes
Format settings, Reference frames        : 4 frames
Codec ID                                 : V_MPEG4/ISO/AVC
Duration                                 : 2 h 36 min
Bit rate mode                            : Variable
Bit rate                                 : 22.0 Mb/s
Maximum bit rate                         : 37.0 Mb/s
Width                                    : 1 920 pixels
Height                                   : 1 080 pixels
Display aspect ratio                     : 16:9
Frame rate mode                          : Constant
Frame rate                               : 23.976 (24000/1001) FPS
Color space                              : YUV
Chroma subsampling                       : 4:2:0
Bit depth                                : 8 bits
Scan type                                : Progressive
Bits/(Pixel*Frame)                       : 0.442
Stream size                              : 24.0 GiB (81%)
Language                                 : English
Default                                  : No
Forced                                   : No

Audio
ID                                       : 3
Format                                   : DTS XLL
Format/Info                              : Digital Theater Systems
Commercial name                          : DTS-HD Master Audio
Codec ID                                 : A_DTS
Duration                                 : 2 h 36 min
Bit rate mode                            : Variable
Bit rate                                 : 4 932 kb/s
Channel(s)                               : 8 channels
Channel layout                           : C L R LFE Lb Rb Lss Rss
Sampling rate                            : 48.0 kHz
Frame rate                               : 93.750 FPS (512 SPF)
Bit depth                                : 24 bits
Compression mode                         : Lossless
Stream size                              : 5.39 GiB (18%)
Language                                 : English
Default                                  : Yes
Forced                                   : No

Text #1
ID                                       : 1
Format                                   : UTF-8
Codec ID                                 : S_TEXT/UTF8
Codec ID/Info                            : UTF-8 Plain Text
Duration                                 : 2 h 29 min
Bit rate                                 : 50 b/s
Count of elements                        : 1751
Stream size                              : 55.7 KiB (0%)
Language                                 : Romanian
Default                                  : No
Forced                                   : No

Text #2
ID                                       : 4
Format                                   : PGS
Codec ID                                 : S_HDMV/PGS
Codec ID/Info                            : Picture based subtitle format used on BDs/HD-DVDs
Duration                                 : 2 h 26 min
Bit rate                                 : 41.1 kb/s
Count of elements                        : 4866
Stream size                              : 43.1 MiB (0%)
Language                                 : English
Default                                  : No
Forced                                   : No

Text #3
ID                                       : 5
Format                                   : PGS
Codec ID                                 : S_HDMV/PGS
Codec ID/Info                            : Picture based subtitle format used on BDs/HD-DVDs
Duration                                 : 2 h 34 min
Bit rate                                 : 28.0 kb/s
Count of elements                        : 3544
Stream size                              : 31.0 MiB (0%)
Language                                 : German
Default                                  : No
Forced                                   : No

Text #4
ID                                       : 6
Format                                   : PGS
Codec ID                                 : S_HDMV/PGS
Codec ID/Info                            : Picture based subtitle format used on BDs/HD-DVDs
Duration                                 : 2 h 34 min
Bit rate                                 : 28.7 kb/s
Count of elements                        : 3552
Stream size                              : 31.8 MiB (0%)
Language                                 : Italian
Default                                  : No
Forced                                   : No

Text #5
ID                                       : 7
Format                                   : PGS
Codec ID                                 : S_HDMV/PGS
Codec ID/Info                            : Picture based subtitle format used on BDs/HD-DVDs
Duration                                 : 2 h 8 min
Bit rate                                 : 10.2 kb/s
Count of elements                        : 1148
Stream size                              : 9.39 MiB (0%)
Language                                 : German
Default                                  : No
Forced                                   : No

Text #6
ID                                       : 8
Format                                   : PGS
Codec ID                                 : S_HDMV/PGS
Codec ID/Info                            : Picture based subtitle format used on BDs/HD-DVDs
Duration                                 : 2 h 29 min
Bit rate                                 : 8 615 b/s
Count of elements                        : 1020
Stream size                              : 9.19 MiB (0%)
Language                                 : Italian
Default                                  : No
Forced                                   : No

Menu
00:00:00.000                             : :Chapter 01
00:07:34.162                             : :Chapter 02
00:13:14.335                             : :Chapter 03
00:16:45.171                             : :Chapter 04
00:20:45.494                             : :Chapter 05
00:25:04.962                             : :Chapter 06
00:30:40.255                             : :Chapter 07
00:35:07.147                             : :Chapter 08
00:38:42.570                             : :Chapter 09
00:43:52.213                             : :Chapter 10
00:45:50.122                             : :Chapter 11
00:48:53.305                             : :Chapter 12
00:56:42.399                             : :Chapter 13
01:03:14.457                             : :Chapter 14
01:08:33.693                             : :Chapter 15
01:20:01.755                             : :Chapter 16
01:26:38.610                             : :Chapter 17
01:33:58.925                             : :Chapter 18
01:37:26.591                             : :Chapter 19
01:46:58.287                             : :Chapter 20
01:51:18.630                             : :Chapter 21
01:59:52.352                             : :Chapter 22
02:06:32.543                             : :Chapter 23
02:18:32.137                             : :Chapter 24
02:27:05.817                             : :Chapter 25

Readme/Password

Password & My Message