Fast Download Mirrors

What If…? (2021-) • TVSeries | S01.HDR.2160p.WEBRip.Opus.5.1.x265 – TSP

What If...? (2021-) • TVSeries
What If...? (2021) Animation, Action, Adventure, Fantasy | August 11, 2021 (United States) Summary: Exploring pivotal moments from the Marvel Cinematic Universe and turning them on their head, leading the audience into uncharted territory.
Countries: United StatesLanguages: English

What If…? is a TV series starring Jeffrey Wright, Hayley Atwell, and Josh Brolin. Exploring pivotal moments from the Marvel Cinematic Universe and turning them on their head, leading the audience into uncharted territory.

Mirrors: 1fichier, MultiUp, GDrive[Sharer], Gdrive Index
Format: MKV
Season-1
Credits: TSP

Download

General
Format                                   : Matroska
Format version                           : Version 4
File size                                : 1.13 GiB
Duration                                 : 32 min 16 s
Overall bit rate                         : 4 996 kb/s
Encoded date                             : UTC 2021-10-05 14:38:50
Writing application                      : mkvmerge v53.0.0 ('Fool's Gold') 64-bit
Writing library                          : libebml v1.4.1 + libmatroska v1.6.2

Video
ID                                       : 1
Format                                   : HEVC
Format/Info                              : High Efficiency Video Coding
Format profile                           : Main@L5@Main
Codec ID                                 : V_MPEGH/ISO/HEVC
Duration                                 : 32 min 16 s
Bit rate                                 : 4 844 kb/s
Width                                    : 3 840 pixels
Height                                   : 2 160 pixels
Display aspect ratio                     : 16:9
Frame rate mode                          : Constant
Frame rate                               : 24.000 FPS
Color space                              : YUV
Chroma subsampling                       : 4:2:0
Bit depth                                : 8 bits
Bits/(Pixel*Frame)                       : 0.024
Stream size                              : 1.09 GiB (97%)
Default                                  : Yes
Forced                                   : No
Color range                              : Limited
Color primaries                          : BT.2020
Transfer characteristics                 : PQ
Matrix coefficients                      : BT.2020 non-constant

Audio
ID                                       : 2
Format                                   : Opus
Codec ID                                 : A_OPUS
Duration                                 : 32 min 16 s
Bit rate                                 : 147 kb/s
Channel(s)                               : 6 channels
Channel layout                           : L R C Lb Rb LFE
Sampling rate                            : 48.0 kHz
Frame rate                               : 50.000 FPS (960 SPF)
Compression mode                         : Lossy
Stream size                              : 34.0 MiB (3%)
Writing library                          : Lavc58.115.102 libopus
Language                                 : English
Default                                  : No
Forced                                   : No

Text #1
ID                                       : 3
Format                                   : UTF-8
Codec ID                                 : S_TEXT/UTF8
Codec ID/Info                            : UTF-8 Plain Text
Duration                                 : 29 min 13 s
Bit rate                                 : 83 b/s
Count of elements                        : 430
Stream size                              : 17.9 KiB (0%)
Language                                 : English
Default                                  : No
Forced                                   : No

Text #2
ID                                       : 4
Format                                   : UTF-8
Codec ID                                 : S_TEXT/UTF8
Codec ID/Info                            : UTF-8 Plain Text
Duration                                 : 29 min 13 s
Bit rate                                 : 87 b/s
Count of elements                        : 499
Stream size                              : 18.8 KiB (0%)
Title                                    : SDH
Language                                 : English
Default                                  : No
Forced                                   : No

Text #3
ID                                       : 5
Format                                   : UTF-8
Codec ID                                 : S_TEXT/UTF8
Codec ID/Info                            : UTF-8 Plain Text
Duration                                 : 31 min 30 s
Bit rate                                 : 71 b/s
Count of elements                        : 354
Stream size                              : 16.5 KiB (0%)
Language                                 : Danish
Default                                  : No
Forced                                   : No

Text #4
ID                                       : 6
Format                                   : UTF-8
Codec ID                                 : S_TEXT/UTF8
Codec ID/Info                            : UTF-8 Plain Text
Duration                                 : 31 min 30 s
Bit rate                                 : 73 b/s
Count of elements                        : 501
Stream size                              : 17.0 KiB (0%)
Language                                 : German
Default                                  : No
Forced                                   : No

Text #5
ID                                       : 7
Format                                   : UTF-8
Codec ID                                 : S_TEXT/UTF8
Codec ID/Info                            : UTF-8 Plain Text
Duration                                 : 31 min 32 s
Bit rate                                 : 75 b/s
Count of elements                        : 430
Stream size                              : 17.4 KiB (0%)
Title                                    : Español
Language                                 : Spanish
Default                                  : No
Forced                                   : No

Text #6
ID                                       : 8
Format                                   : UTF-8
Codec ID                                 : S_TEXT/UTF8
Codec ID/Info                            : UTF-8 Plain Text
Duration                                 : 31 min 32 s
Bit rate                                 : 78 b/s
Count of elements                        : 430
Stream size                              : 18.2 KiB (0%)
Title                                    : Español (Latinoamericano)
Language                                 : Spanish
Default                                  : No
Forced                                   : No

Text #7
ID                                       : 9
Format                                   : UTF-8
Codec ID                                 : S_TEXT/UTF8
Codec ID/Info                            : UTF-8 Plain Text
Duration                                 : 31 min 30 s
Bit rate                                 : 71 b/s
Count of elements                        : 450
Stream size                              : 16.5 KiB (0%)
Title                                    : Français
Language                                 : French
Default                                  : No
Forced                                   : No

Text #8
ID                                       : 10
Format                                   : UTF-8
Codec ID                                 : S_TEXT/UTF8
Codec ID/Info                            : UTF-8 Plain Text
Duration                                 : 30 min 4 s
Bit rate                                 : 74 b/s
Count of elements                        : 449
Stream size                              : 16.4 KiB (0%)
Title                                    : Français (Canadien)
Language                                 : French
Default                                  : No
Forced                                   : No

Text #9
ID                                       : 11
Format                                   : UTF-8
Codec ID                                 : S_TEXT/UTF8
Codec ID/Info                            : UTF-8 Plain Text
Duration                                 : 31 min 30 s
Bit rate                                 : 75 b/s
Count of elements                        : 427
Stream size                              : 17.5 KiB (0%)
Language                                 : Italian
Default                                  : No
Forced                                   : No

Text #10
ID                                       : 12
Format                                   : UTF-8
Codec ID                                 : S_TEXT/UTF8
Codec ID/Info                            : UTF-8 Plain Text
Duration                                 : 31 min 30 s
Bit rate                                 : 70 b/s
Count of elements                        : 358
Stream size                              : 16.2 KiB (0%)
Language                                 : Dutch
Default                                  : No
Forced                                   : No

Text #11
ID                                       : 13
Format                                   : UTF-8
Codec ID                                 : S_TEXT/UTF8
Codec ID/Info                            : UTF-8 Plain Text
Duration                                 : 31 min 32 s
Bit rate                                 : 71 b/s
Count of elements                        : 429
Stream size                              : 16.5 KiB (0%)
Language                                 : Norwegian Bokmal
Default                                  : No
Forced                                   : No

Text #12
ID                                       : 14
Format                                   : UTF-8
Codec ID                                 : S_TEXT/UTF8
Codec ID/Info                            : UTF-8 Plain Text
Duration                                 : 31 min 32 s
Bit rate                                 : 76 b/s
Count of elements                        : 431
Stream size                              : 17.6 KiB (0%)
Language                                 : Polish
Default                                  : No
Forced                                   : No

Text #13
ID                                       : 15
Format                                   : UTF-8
Codec ID                                 : S_TEXT/UTF8
Codec ID/Info                            : UTF-8 Plain Text
Duration                                 : 31 min 32 s
Bit rate                                 : 77 b/s
Count of elements                        : 431
Stream size                              : 17.9 KiB (0%)
Title                                    : Português
Language                                 : Portuguese
Default                                  : No
Forced                                   : No

Text #14
ID                                       : 16
Format                                   : UTF-8
Codec ID                                 : S_TEXT/UTF8
Codec ID/Info                            : UTF-8 Plain Text
Duration                                 : 31 min 32 s
Bit rate                                 : 80 b/s
Count of elements                        : 430
Stream size                              : 18.5 KiB (0%)
Title                                    : Português (Brasil)
Language                                 : Portuguese
Default                                  : No
Forced                                   : No

Text #15
ID                                       : 17
Format                                   : UTF-8
Codec ID                                 : S_TEXT/UTF8
Codec ID/Info                            : UTF-8 Plain Text
Duration                                 : 31 min 32 s
Bit rate                                 : 70 b/s
Count of elements                        : 429
Stream size                              : 16.3 KiB (0%)
Language                                 : Finnish
Default                                  : No
Forced                                   : No

Text #16
ID                                       : 18
Format                                   : UTF-8
Codec ID                                 : S_TEXT/UTF8
Codec ID/Info                            : UTF-8 Plain Text
Duration                                 : 31 min 32 s
Bit rate                                 : 62 b/s
Count of elements                        : 428
Stream size                              : 14.5 KiB (0%)
Language                                 : Swedish
Default                                  : No
Forced                                   : No

Menu
00:00:05.750                             : en:Intro
00:01:24.917                             : en:Main
00:30:59.542                             : en:Credits

WHAT IF…? (2021-) • TVSERIES | 1080p.Web-DL
https://ambassadorddl.site/what-if-2021-tvseries/
Readme

Password & My Message

Screenshots
image host image host image host