Fast Download Mirrors

What If…? (2021-) • TVSeries

What If...? (2021-) • TVSeries
What If...? (2021) Animation, Action, Adventure, Fantasy | August 11, 2021 (United States) Summary: Exploring pivotal moments from the Marvel Cinematic Universe and turning them on their head, leading the audience into uncharted territory.
Countries: United StatesLanguages: English

What If…? is a TV series starring Jeffrey Wright, Hayley Atwell, and Josh Brolin. Exploring pivotal moments from the Marvel Cinematic Universe and turning them on their head, leading the audience into uncharted territory.

Mirrors: MirrorAce, MultiUp, GDrive[Sharer], Gdrive Index
Format: MKV
Season-1
1080p.DSNP.WEBRip.DDP5.1.Atmos.x264
2160p.DSNP.WEB-DL.x265.10bit.HDR.DDP5.1.Atmos

Download

What.If.S01E01.What.If.Captain.Carter.Were.The.First.Avenger.1080p.DSNP.WEBRip.DDP5.1.Atmos.x264-NOGRP.mkv (1.5GB)
https://mirrorace.org/m/5MMsd
https://multiup.org/8259cad4efc78d7d61ea2887a991c252
https://sharer.pw/file/6w7C-jbL7FKg
https://ambassadorddl.site/drive/#YvAcjn7I/9ovPdvJtSR6ld4VccLzmGbfNZCz3DggncqSSR2htbepa1EzAXdEij7XYNjZjSc6Gyojrb8Csg==

What.If.S01E01.2160p.DSNP.WEB-DL.x265.10bit.HDR.DDP5.1.Atmos-NOGRP.mkv (3.56 GB)
https://mirrorace.org/m/5MMsc
https://multiup.org/c4976b7d86f22324c61cb15996a51093
https://sharer.pw/file/OHhOa_5Boqbw
https://ambassadorddl.site/drive/#03b0SbJNRnrA9ihdnmTkXkZ/3dcEdstUKrv80B9I51fXlJd2IT3o1tAIu50PF2hq/wBCHqwbIvfGRwozGw==
What.If.2021.S01E02.What.If.TChalla.Became.a.Star-Lord.1080p.DSNP.WEB-DL.DDP5.1.Atmos.H.264-FLUX.mkv - 1.5GB
https://mirrorace.org/m/1J58u
https://multiup.org/d199606f8eff05b1238eb69069bcc27f

https://sharer.pw/file/B-VGNJ1nxCS4
https://ambassadorddl.site/drive/#QLTWIanr5jxtfdKyXXO3BOWgMvuj0hkAYj/3atCGqFB1GSNBA/00772EVlsv9AIBPYAqu7c0JYIeKUaTXQ==

What.If.2021.S01E02.HDR.2160p.WEB-DL.DDPA5.1.H.265-FLUX.mkv (4.98 GB)
https://mirrorace.org/m/1J58y
https://multiup.org/f47bc5bfa8a211104e41c54ef01c65db

https://sharer.pw/file/ubP_Uecw2Ffy
https://ambassadorddl.site/drive/#3y/6pxfnYt/rpM6hzVlifiPZVcOnuZa4oi91cvlWF1nbTSZJnf4imUt07/VzBVwUVp/zYCYnFFJzbfFssw==

What.If.2021.S01E03.What.If.The.World.Lost.Its.Mightiest.Heroes.1080p.DSNP.WEB-DL.DDP5.1.Atmos.H.264-FLUX.mkv 1.3GB
https://mirrorace.org/m/13bog
https://ambassadorddl.site/drive/#IJHXbCtoikrtPgX/vWIM2siOIBN+F88CGMwzPoSo9T8kciuX1rbcIwEkQWcYb4B7gglczYldLAL8os2T/w==
https://sharer.pw/file/ASCn3k2yRTmE

What.If.2021.S01E03.2160p.WEB-DL.DDP5.1.Atmos.HDR.H.265-FLUX.mkv (4.76 GB)
https://mirrorace.org/m/1J934
https://multiup.org/248ac72f50b77c00773c0ddb5227a64f
https://sharer.pw/file/WjY80jEqbDFt

What.If.2021.S01E04.What.If.Doctor.Strange.Lost.His.Heart.Instead.of.His.Hands.1080p.DSNP.WEB-DL.DDP5.1.Atmos.H.264-FLUX.mkv (1.55 GB)
https://mirrorace.org/m/1Jcy9
https://multiup.org/8247b441d2a8257d2f36e5a12bee78cb
https://sharer.pw/file/1_BzIRtzUUVn
https://ambassadorddl.site/drive/#GuWRWIhI1WOCl0kEPHPZP1MyOmKc2Adz4HxfKZh7goZCywRxclg8tH806hN9fp3G+83Y31r5fIYYXJlEuA==
	
What.If.2021.S01E04.What.If.Doctor.Strange.Lost.His.Heart.And.Not.His.Hands.2160p.WEB-DL.DDP5.1.Atmos.HDR.H.265-FLUX.mkv (5.35 GB)
https://mirrorace.org/m/1Jcye
https://multiup.org/9fbaf7afc76787582c9538f606456b1f
https://sharer.pw/file/nmWvzfpswk4f
https://ambassadorddl.site/drive/#Fd86loOYRM1Lq7Rxm8cAqyHQ3wm41u9Jk+QBUKR2gae2ztj+9aQ2I8uVF/q22ZDmNDJlSpgSmAfKsAabfQ==

What.If.2021.S01E05.What.If.Zombies.1080p.DSNP.WEB-DL.DDP5.1.Atmos.H.264-FLUX.mkv (1.48 GB)		https://mirrorace.org/m/13j3j
https://multiup.org/cae3e7c5f45a0d660fd0348b5ff17a74	
https://sharer.pw/file/NpHNDmLIrnmG
https://new.gdtot.me/file/6358179967
https://ambassadorddl.site/drive/#r/8TYSfO1l27ofCOnYKD7JGFP7cSdMTYsXpcAecvQtunF6I3tOZJQrRxyQ7knDq1XIfbxwCiF9kJv4WdaQ==
	
What.If.2021.S01E05.What.If.Zombies.2160p.WEB-DL.DDP5.1.Atmos.H.265-FLUX.mkv (4.22 GB)		https://mirrorace.org/m/13j3n
https://multiup.org/0fb18e7ac2656b6135e2ff1500823fcc
https://sharer.pw/file/IjD_CbglfCuR
https://new.gdtot.me/file/9067378785
https://ambassadorddl.site/drive/#5qqZPhzxO5tqnCdeT61MdVoSj2XjtpBGoHmH/TARTyZr1mjPnkp5DNweIjbqvRuKAE/eOug9UwtwoP8Bnw==

What.If.2021.S01E06.1080p.DSNP.WEBRip.DDP5.1.x264-FLUX.mkv (1.48 GB)
https://mirrorace.org/m/35fyB
https://multiup.org/d1ed9952df3955701c0cee02776a9ae1
https://new.gdtot.me/file/4754169171
https://sharer.pw/file/FZNlppyCJA8C

What.If.2021.S01E06.What.If.Killmonger.Rescued.Tony.Stark.2160p.WEB-DL.DDP5.1.Atmos.HDR.H.265-FLUX.mkv (4.86 GB)		
https://mirrorace.org/m/35fyC
https://multiup.org/075ec280e5e7ce318cf59b4c955c1ba7
https://new.gdtot.me/file/10427687003
https://sharer.pw/file/rgg_IMiRitp5

What.If.2021.S01E07.What.If.Thor.Were.an.Only.Child.1080p.DSNP.WEB-DL.DDP5.1.Atmos.H.264-FLUX.mkv - 1.61 GB
https://mirrorace.org/m/1Jolh
https://multiup.org/ee31346e3d90ddbfa4b60e05999f67f5
https://new.gdtot.me/file/1728499780
https://sharer.pw/file/G-3gFBp5E8eT

What.If.2021.S01E08.What.If.Ultron.Won.1080p.DSNP.WEB-DL.DDP5.1.Atmos.H.264-FLUX.mkv - 1.56 GB
https://mirrorace.org/m/13va4
https://multiup.org/18a5db2b138b08122aa3c302a592a5c0
https://sharer.pw/file/pR6kDuTeqVHv
https://new.gdtot.me/file/8352407773

What.If..S01E09.What.If.The.Watcher.Broke.His.Oath.1080p.DSNP.WEB-DL.DDP5.1.Atmos.HEVC-Saon.mkv - 1.44 GB
https://sharer.pw/file/ilco9PRLU3VV
https://new.gdtot.org/file/9290804505
https://multiup.org/904e9f698ac73f3ace25e52a531b8f9c
https://mirrorace.org/m/13zv1

Gdrive[Password Protected]
https://official2.the-ambassador1.workers.dev/0:/What.If.S01/

Password & My Message


MediaInfo
Video
ID : 1
Format : HEVC
Format/Info : High Efficiency Video Coding
Format profile : Main 10@L5@High
HDR format : SMPTE ST 2086, HDR10 compatible
Codec ID : V_MPEGH/ISO/HEVC
Duration : 31 min 12 s
Bit rate : 15.6 Mb/s
Width : 3 840 pixels
Height : 2 160 pixels
Display aspect ratio : 16:9
Frame rate mode : Constant
Frame rate : 24.000 FPS
Color space : YUV
Chroma subsampling : 4:2:0
Bit depth : 10 bits
Bits/(Pixel*Frame) : 0.078
Stream size : 3.39 GiB (95%)
Default : Yes
Forced : No
Color range : Limited
Color primaries : BT.2020
Transfer characteristics : PQ
Matrix coefficients : BT.2020 non-constant
Mastering display color primaries : BT.2020
Mastering display luminance : min: 0.0000 cd/m2, max: 1000 cd/m2

Audio
ID : 2
Format : E-AC-3 JOC
Format/Info : Enhanced AC-3 with Joint Object Coding
Commercial name : Dolby Digital Plus with Dolby Atmos
Codec ID : A_EAC3
Duration : 31 min 12 s
Bit rate mode : Constant
Bit rate : 768 kb/s
Channel(s) : 6 channels
Channel layout : L R C LFE Ls Rs
Sampling rate : 48.0 kHz
Frame rate : 31.250 FPS (1536 SPF)
Compression mode : Lossy
Stream size : 171 MiB (5%)
Language : English
Service kind : Complete Main
Default : No
Forced : No
Complexity index : 16
Number of dynamic objects : 15
Bed channel count : 1 channel
Bed channel configuration : LFE

Text #1
ID : 3
Format : UTF-8
Codec ID : S_TEXT/UTF8
Codec ID/Info : UTF-8 Plain Text
Duration : 28 min 24 s
Bit rate : 63 b/s
Count of elements : 379
Stream size : 13.1 KiB (0%)
Title : SDH
Language : English
Default : Yes
Forced : No

Text #2
ID : 4
Format : UTF-8
Codec ID : S_TEXT/UTF8
Codec ID/Info : UTF-8 Plain Text
Duration : 30 min 32 s
Bit rate : 53 b/s
Count of elements : 267
Stream size : 11.9 KiB (0%)
Language : Danish
Default : No
Forced : No

Text #3
ID : 5
Format : UTF-8
Codec ID : S_TEXT/UTF8
Codec ID/Info : UTF-8 Plain Text
Duration : 30 min 29 s
Bit rate : 53 b/s
Count of elements : 355
Stream size : 12.0 KiB (0%)
Language : German
Default : No
Forced : No

Text #4
ID : 6
Format : UTF-8
Codec ID : S_TEXT/UTF8
Codec ID/Info : UTF-8 Plain Text
Duration : 30 min 32 s
Bit rate : 55 b/s
Count of elements : 321
Stream size : 12.4 KiB (0%)
Title : European
Language : Spanish
Default : No
Forced : No

Text #5
ID : 7
Format : UTF-8
Codec ID : S_TEXT/UTF8
Codec ID/Info : UTF-8 Plain Text
Duration : 30 min 32 s
Bit rate : 54 b/s
Count of elements : 322
Stream size : 12.1 KiB (0%)
Language : Spanish
Default : No
Forced : No

Text #6
ID : 8
Format : UTF-8
Codec ID : S_TEXT/UTF8
Codec ID/Info : UTF-8 Plain Text
Duration : 30 min 32 s
Bit rate : 51 b/s
Count of elements : 321
Stream size : 11.6 KiB (0%)
Language : Finnish
Default : No
Forced : No

Text #7
ID : 9
Format : UTF-8
Codec ID : S_TEXT/UTF8
Codec ID/Info : UTF-8 Plain Text
Duration : 29 min 4 s
Bit rate : 52 b/s
Count of elements : 349
Stream size : 11.3 KiB (0%)
Title : Canadian
Language : French
Default : No
Forced : No

Text #8
ID : 10
Format : UTF-8
Codec ID : S_TEXT/UTF8
Codec ID/Info : UTF-8 Plain Text
Duration : 30 min 29 s
Bit rate : 50 b/s
Count of elements : 350
Stream size : 11.3 KiB (0%)
Language : French
Default : No
Forced : No

Text #9
ID : 11
Format : UTF-8
Codec ID : S_TEXT/UTF8
Codec ID/Info : UTF-8 Plain Text
Duration : 30 min 29 s
Bit rate : 52 b/s
Count of elements : 320
Stream size : 11.7 KiB (0%)
Language : Italian
Default : No
Forced : No

Text #10
ID : 12
Format : UTF-8
Codec ID : S_TEXT/UTF8
Codec ID/Info : UTF-8 Plain Text
Duration : 30 min 32 s
Bit rate : 51 b/s
Count of elements : 321
Stream size : 11.6 KiB (0%)
Language : Norwegian Bokmal
Default : No
Forced : No

Text #11
ID : 13
Format : UTF-8
Codec ID : S_TEXT/UTF8
Codec ID/Info : UTF-8 Plain Text
Duration : 30 min 29 s
Bit rate : 52 b/s
Count of elements : 291
Stream size : 11.6 KiB (0%)
Language : Dutch
Default : No
Forced : No

Text #12
ID : 14
Format : UTF-8
Codec ID : S_TEXT/UTF8
Codec ID/Info : UTF-8 Plain Text
Duration : 30 min 32 s
Bit rate : 54 b/s
Count of elements : 322
Stream size : 12.2 KiB (0%)
Language : Polish
Default : No
Forced : No

Text #13
ID : 15
Format : UTF-8
Codec ID : S_TEXT/UTF8
Codec ID/Info : UTF-8 Plain Text
Duration : 30 min 32 s
Bit rate : 56 b/s
Count of elements : 321
Stream size : 12.7 KiB (0%)
Title : Brazilian
Language : Portuguese
Default : No
Forced : No

Text #14
ID : 16
Format : UTF-8
Codec ID : S_TEXT/UTF8
Codec ID/Info : UTF-8 Plain Text
Duration : 30 min 32 s
Bit rate : 55 b/s
Count of elements : 322
Stream size : 12.5 KiB (0%)
Language : Portuguese
Default : No
Forced : No

Text #15
ID : 17
Format : UTF-8
Codec ID : S_TEXT/UTF8
Codec ID/Info : UTF-8 Plain Text
Duration : 30 min 32 s
Bit rate : 46 b/s
Count of elements : 321
Stream size : 10.3 KiB (0%)
Language : Swedish
Default : No
Forced : No

Menu
00:29:58.000 : Credits
MediaInfo(1080p)
Video
ID : 1
Format : AVC
Format/Info : Advanced Video Codec
Format profile : High@L4
Format settings : CABAC / 4 Ref Frames
Format settings, CABAC : Yes
Format settings, Reference frames : 4 frames
Codec ID : V_MPEG4/ISO/AVC
Duration : 31 min 12 s
Bit rate mode : Variable
Bit rate : 6 296 kb/s
Maximum bit rate : 12.7 Mb/s
Width : 1 920 pixels
Height : 1 080 pixels
Display aspect ratio : 16:9
Frame rate mode : Constant
Frame rate : 24.000 FPS
Color space : YUV
Chroma subsampling : 4:2:0
Bit depth : 8 bits
Scan type : Progressive
Bits/(Pixel*Frame) : 0.127
Stream size : 1.37 GiB (89%)
Language : English
Default : Yes
Forced : No
Color range : Limited
Color primaries : BT.709
Transfer characteristics : BT.709
Matrix coefficients : BT.709

Audio
ID : 2
Format : E-AC-3 JOC
Format/Info : Enhanced AC-3 with Joint Object Coding
Commercial name : Dolby Digital Plus with Dolby Atmos
Codec ID : A_EAC3
Duration : 31 min 12 s
Bit rate mode : Constant
Bit rate : 768 kb/s
Channel(s) : 6 channels
Channel layout : L R C LFE Ls Rs
Sampling rate : 48.0 kHz
Frame rate : 31.250 FPS (1536 SPF)
Compression mode : Lossy
Stream size : 171 MiB (11%)
Language : English
Service kind : Complete Main
Default : Yes
Forced : No
Complexity index : 16
Number of dynamic objects : 15
Bed channel count : 1 channel
Bed channel configuration : LFE

Text #1
ID : 3
Format : UTF-8
Codec ID : S_TEXT/UTF8
Codec ID/Info : UTF-8 Plain Text
Duration : 28 min 24 s
Bit rate : 63 b/s
Count of elements : 379
Stream size : 13.1 KiB (0%)
Title : SDH
Language : English
Default : No
Forced : No

Text #2
ID : 4
Format : UTF-8
Codec ID : S_TEXT/UTF8
Codec ID/Info : UTF-8 Plain Text
Duration : 30 min 32 s
Bit rate : 53 b/s
Count of elements : 267
Stream size : 11.9 KiB (0%)
Language : Danish
Default : No
Forced : No

Text #3
ID : 5
Format : UTF-8
Codec ID : S_TEXT/UTF8
Codec ID/Info : UTF-8 Plain Text
Duration : 30 min 29 s
Bit rate : 53 b/s
Count of elements : 355
Stream size : 12.0 KiB (0%)
Language : German
Default : No
Forced : No

Text #4
ID : 6
Format : UTF-8
Codec ID : S_TEXT/UTF8
Codec ID/Info : UTF-8 Plain Text
Duration : 30 min 32 s
Bit rate : 55 b/s
Count of elements : 321
Stream size : 12.4 KiB (0%)
Title : European
Language : Spanish
Default : No
Forced : No

Text #5
ID : 7
Format : UTF-8
Codec ID : S_TEXT/UTF8
Codec ID/Info : UTF-8 Plain Text
Duration : 30 min 32 s
Bit rate : 54 b/s
Count of elements : 322
Stream size : 12.1 KiB (0%)
Language : Spanish
Default : No
Forced : No

Text #6
ID : 8
Format : UTF-8
Codec ID : S_TEXT/UTF8
Codec ID/Info : UTF-8 Plain Text
Duration : 30 min 32 s
Bit rate : 51 b/s
Count of elements : 321
Stream size : 11.6 KiB (0%)
Language : Finnish
Default : No
Forced : No

Text #7
ID : 9
Format : UTF-8
Codec ID : S_TEXT/UTF8
Codec ID/Info : UTF-8 Plain Text
Duration : 29 min 4 s
Bit rate : 52 b/s
Count of elements : 349
Stream size : 11.3 KiB (0%)
Title : Canadian
Language : French
Default : No
Forced : No

Text #8
ID : 10
Format : UTF-8
Codec ID : S_TEXT/UTF8
Codec ID/Info : UTF-8 Plain Text
Duration : 30 min 29 s
Bit rate : 50 b/s
Count of elements : 350
Stream size : 11.3 KiB (0%)
Language : French
Default : No
Forced : No

Text #9
ID : 11
Format : UTF-8
Codec ID : S_TEXT/UTF8
Codec ID/Info : UTF-8 Plain Text
Duration : 30 min 29 s
Bit rate : 52 b/s
Count of elements : 320
Stream size : 11.7 KiB (0%)
Language : Italian
Default : No
Forced : No

Text #10
ID : 12
Format : UTF-8
Codec ID : S_TEXT/UTF8
Codec ID/Info : UTF-8 Plain Text
Duration : 30 min 32 s
Bit rate : 51 b/s
Count of elements : 321
Stream size : 11.6 KiB (0%)
Language : Norwegian Bokmal
Default : No
Forced : No

Text #11
ID : 13
Format : UTF-8
Codec ID : S_TEXT/UTF8
Codec ID/Info : UTF-8 Plain Text
Duration : 30 min 29 s
Bit rate : 52 b/s
Count of elements : 291
Stream size : 11.6 KiB (0%)
Language : Dutch
Default : No
Forced : No

Text #12
ID : 14
Format : UTF-8
Codec ID : S_TEXT/UTF8
Codec ID/Info : UTF-8 Plain Text
Duration : 30 min 32 s
Bit rate : 54 b/s
Count of elements : 322
Stream size : 12.2 KiB (0%)
Language : Polish
Default : No
Forced : No

Text #13
ID : 15
Format : UTF-8
Codec ID : S_TEXT/UTF8
Codec ID/Info : UTF-8 Plain Text
Duration : 30 min 32 s
Bit rate : 56 b/s
Count of elements : 321
Stream size : 12.7 KiB (0%)
Title : Brazilian
Language : Portuguese
Default : No
Forced : No

Text #14
ID : 16
Format : UTF-8
Codec ID : S_TEXT/UTF8
Codec ID/Info : UTF-8 Plain Text
Duration : 30 min 32 s
Bit rate : 55 b/s
Count of elements : 322
Stream size : 12.5 KiB (0%)
Language : Portuguese
Default : No
Forced : No

Text #15
ID : 17
Format : UTF-8
Codec ID : S_TEXT/UTF8
Codec ID/Info : UTF-8 Plain Text
Duration : 30 min 32 s
Bit rate : 46 b/s
Count of elements : 321
Stream size : 10.3 KiB (0%)
Language : Swedish
Default : No
Forced : No

Menu
00:29:58.000 : Credits