Fast Download Mirrors

What We Do in the Shadows (2016-) • TVSeries | S01-02.1080p.Web.10bit.HEVC-d3g

What We Do in the Shadows • TVSeries
What We Do in the Shadows 1800min | Comedy, Fantasy, Horror | March 27, 2019 (United States) Summary: A look into the daily (or rather, nightly) lives of three vampires, who've lived together for over 100 years, on Staten Island.
Countries: United StatesLanguages: English

A look into the daily (or rather, nightly) lives of three vampires, who’ve lived together for over 100 years, on Staten Island.

Mirrors: MirrorAce, MultiUp, Gdrive[GDTOT, Sharer]
Format: MKV
Credits: d3g
Season(1-2) Complete

Download

Format            : Matroska at 4 898 kb/s
Length            : 1.04 GiB for 30 min 23 s 733 ms

Video #0          : HEVC at 4 369 kb/s
Aspect            : 1920 x 1080 (1.778) at 23.976 fps

Audio #0          : E-AC-3 at 448 kb/s
Infos             : 6 channels, 48.0 kHz
Language          : en

Text #0           : PGS
Language          : en

Text #1           : PGS
Language          : en
General
Unique ID                                : 246082944466847024875884572843555085975 (0xB921D9E54E1B36DFB8C82C6086DADE97)
Complete name                            : What.We.Do.in.the.Shadows.S01E01.Pilot.1080p.WEBRip.10Bit.DDP5.1.HEVC-d3g.mkv
Format                                   : Matroska
Format version                           : Version 2
File size                                : 1.04 GiB
Duration                                 : 30 min 23 s
Overall bit rate                         : 4 898 kb/s
Movie name                               : What.We.Do.in.the.Shadows.S01E01.Pilot.1080p.WEBRip.10Bit.DDP5.1.HEVC-d3g
Encoded date                             : UTC 2021-04-19 22:26:06
Writing application                      : DVDFab 12.0.2.5
Writing library                          : libebml v1.3.4 + libmatroska v1.4.5

Video
ID                                       : 1
Format                                   : HEVC
Format/Info                              : High Efficiency Video Coding
Format profile                           : Main 10@L4@Main
Codec ID                                 : V_MPEGH/ISO/HEVC
Duration                                 : 30 min 22 s
Bit rate                                 : 4 369 kb/s
Width                                    : 1 920 pixels
Height                                   : 1 080 pixels
Display aspect ratio                     : 16:9
Frame rate mode                          : Constant
Frame rate                               : 23.976 (24000/1001) FPS
Color space                              : YUV
Chroma subsampling                       : 4:2:0
Bit depth                                : 10 bits
Bits/(Pixel*Frame)                       : 0.088
Stream size                              : 949 MiB (89%)
Default                                  : Yes
Forced                                   : No
Color range                              : Limited
Color primaries                          : BT.709
Transfer characteristics                 : BT.709
Matrix coefficients                      : BT.709

Audio
ID                                       : 2
Format                                   : E-AC-3
Format/Info                              : Enhanced AC-3
Commercial name                          : Dolby Digital Plus
Codec ID                                 : A_EAC3
Duration                                 : 30 min 23 s
Bit rate mode                            : Constant
Bit rate                                 : 448 kb/s
Channel(s)                               : 6 channels
Channel layout                           : L R C LFE Ls Rs
Sampling rate                            : 48.0 kHz
Frame rate                               : 31.250 FPS (1536 SPF)
Compression mode                         : Lossy
Stream size                              : 97.4 MiB (9%)
Language                                 : English
Service kind                             : Complete Main
Default                                  : Yes
Forced                                   : No

Text #1
ID                                       : 3
Format                                   : PGS
Codec ID                                 : S_HDMV/PGS
Codec ID/Info                            : Picture based subtitle format used on BDs/HD-DVDs
Duration                                 : 30 min 16 s
Bit rate                                 : 38.5 kb/s
Count of elements                        : 1292
Stream size                              : 8.34 MiB (1%)
Language                                 : English
Default                                  : Yes
Forced                                   : No

Text #2
ID                                       : 4
Format                                   : PGS
Codec ID                                 : S_HDMV/PGS
Codec ID/Info                            : Picture based subtitle format used on BDs/HD-DVDs
Duration                                 : 30 min 22 s
Bit rate                                 : 43.1 kb/s
Count of elements                        : 1442
Stream size                              : 9.36 MiB (1%)
Language                                 : English
Default                                  : No
Forced                                   : No


Readme

Password & My Message

Screenshots

======================

======================

======================