Fast Download Mirrors

Y: The Last Man (2021-) • TVSeries

Y: The Last Man (2021-) • TVSeries
Y: The Last Man 60min | Action, Adventure, Drama, Fantasy, Sci-Fi | September 13, 2021 (United States) Summary: Set in a post-apocalyptic world, Y is the last surviving male human on the planet. Based on the comic series "Y: The Last Man."
Countries: United StatesLanguages: English

All of the men are dead. But one. Based on DC Comics’ acclaimed series, Y: The Last Man traverses a post-apocalyptic world in which a cataclysmic event has decimated every male save for one lone human. The new world order of women will explore gender, race, class and survival.

Mirrors: MirrorAce, MultiUp, Gdrive[GDTOT, Sharer]
Format: MKV
Season-1 [Ongoing]
Credits: RARBG

Download – [Web-DL]

Y.The.Last.Man.S01E01.The.Day.Before.1080p.HULU.WEB-DL.DDP5.1.H.264-TEPES.mkv (2.06 GB)

https://mirrorace.org/m/13mf0
https://multiup.org/a5b2d1c490ecfbb2af1ffe16e04b3d66
https://new.gdtot.me/file/2215029480
https://sharer.pw/file/SXugW-kkR21C

Y.The.Last.Man.S01E02.Would.the.World.Be.Kind.1080p.HULU.WEB-DL.DDP5.1.H.264-TEPES.mkv (1.54 GB)
https://mirrorace.org/m/13mf1
https://multiup.org/b1fd42cb41a610abe612694d6a575dd5
https://new.gdtot.me/file/1657266457
https://sharer.pw/file/Yd4xN-BdDA4u

Y.The.Last.Man.S01E03.Neil.1080p.HULU.WEB-DL.DDP5.1.H.264-TEPES.mkv (1.77 GB)
https://mirrorace.org/m/13mf3
https://multiup.org/4931b33fd6f426aa2a8593d1faf72030
https://sharer.pw/file/OUDL6m7eMxAG
https://new.gdtot.me/file/1905805534

Y.The.Last.Man.S01E04.Karen.and.Benji.1080p.DSNP.WEB-DL.DDP5.1.H.264-TEPES.mkv (2.36 GB)
https://mirrorace.org/m/13q3i
https://multiup.org/929adaa782c9a80fe5a2328cd1676fc1
https://new.gdtot.me/file/2529001520
https://sharer.pw/file/uIf0mT69G44Q

Y.The.Last.Man.S01E05.Mann.Hunt.1080p.HULU.WEB-DL.DDP5.1.H.264-TEPES.mkv (1.91 GB)
https://mirrorace.org/m/35n6i
https://multiup.org/d99285fc8c6bd40185117e12d9871e38
https://sharer.pw/file/hnXgdfcLBV8t
https://new.gdtot.me/file/2055480246

y.the.last.man.s01e06.1080p.web.h264-ggwp.mkv - 1.7 GB
https://multiup.org/aae29d07cabde041e694675787356f06
https://mirrorace.org/m/13ymu
https://sharer.pw/file/5oU3ujXu0gAF
https://new.gdtot.org/file/1823057912

Y.The.Last.Man.S01E07.My.Mother.Saw.A.Monkey.1080p.HULU.WEB-DL.DDP5.1.H.264-TEPES.mkv - 2.1 GB
https://sharer.pw/file/De7Nh3WnE8Yu
https://new.gdtot.org/file/2250478519
https://multiup.org/aa18bc3406eddea5a3bc4de71cd1e385
https://mirrorace.org/m/3Lsth
Video
ID : 1
Format : AVC
Format/Info : Advanced Video Codec
Format profile : High@L4
Format settings : CABAC / 4 Ref Frames
Format settings, CABAC : Yes
Format settings, Reference frames : 4 frames
Codec ID : V_MPEG4/ISO/AVC
Duration : 54 min 8 s
Bit rate : 4 435 kb/s
Width : 1 920 pixels
Height : 1 080 pixels
Display aspect ratio : 16:9
Frame rate mode : Constant
Frame rate : 23.976 (24000/1001) FPS
Color space : YUV
Chroma subsampling : 4:2:0
Bit depth : 8 bits
Scan type : Progressive
Bits/(Pixel*Frame) : 0.089
Stream size : 1.68 GiB (95%)
Language : English
Default : Yes
Forced : No

Audio
ID : 2
Format : E-AC-3
Format/Info : Enhanced AC-3
Commercial name : Dolby Digital Plus
Codec ID : A_EAC3
Duration : 54 min 8 s
Bit rate mode : Constant
Bit rate : 256 kb/s
Channel(s) : 6 channels
Channel layout : L R C LFE Ls Rs
Sampling rate : 48.0 kHz
Frame rate : 31.250 FPS (1536 SPF)
Compression mode : Lossy
Stream size : 99.1 MiB (5%)
Language : English
Service kind : Complete Main
Default : Yes
Forced : No

Text #1
ID : 3
Format : UTF-8
Codec ID : S_TEXT/UTF8
Codec ID/Info : UTF-8 Plain Text
Duration : 52 min 47 s
Bit rate : 61 b/s
Count of elements : 830
Stream size : 23.9 KiB (0%)
Language : English
Default : No
Forced : No

Text #2
ID : 4
Format : UTF-8
Codec ID : S_TEXT/UTF8
Codec ID/Info : UTF-8 Plain Text
Duration : 53 min 55 s
Bit rate : 67 b/s
Count of elements : 927
Stream size : 26.6 KiB (0%)
Title : SDH
Language : English
Default : No
Forced : No

Readme

Password & My Message

Screenshots