Fast Download Mirrors

Afghanistan: The Wounded Land (2020) • TV Mini Series

Afghanistan: The Wounded Land (2020)
Afghanistan: The Wounded Land Documentary, History | April 7, 2020 (Germany) Summary: Look at 40 years of war through the eyes of those who suffer most from it - the women of Afghanistan. The documentary begins in the 1960s, when peace reigns in the Kingdom of Afghanistan. Wh... Read all
Countries: Germany, France, Qatar, Czech Republic, Russia, Norway, NetherlandsLanguages: German

Looks at six decades of Afghan history through the eyes of those who were there: men and women, warriors and civilians, Afghans and foreigners. Their memories of the golden era under King Zahir Shah, the Soviet occupation, the civil war, the Taliban regime, of 9/11 and its aftermath combine with an unparalleled selection of archive footage. Thus, this mini-series grants new insight into what went tragically wrong in the past, and what future is being hoped for.

1)  Kingdom
In the 1960s, Afghanistan was made up of a small westernized elite as well as a traditional and poor population. A communist revolution ignited these contradictions. The series begins when there was peace in Afghanistan and the king opened the country to the world. At the time, Kabul looked like a European capital: the best hotels organized beauty pageants and fashion shows. It was a destination for hippies looking for cheap drugs and exotic adventures. But not everyone was comfortable with these changes.

2)  Jihad
In 1979 the Soviet army entered Afghanistan. In response, the Afghans called for jihad against the wicked invaders.

3)  Taliban
As the Soviet Union collapsed and the United States turned its attention to Iraq, fighting in Afghanistan continued among various ethnic groups and Mujahideen factions. The war turned into an even more brutal civil war. In the midst of the chaos, a new force emerged: the Taliban. With Pakistan’s support, the Taliban was victorious. Under their rule, Afghanistan became the laboratory for a new type of Islamic state and the training ground for Bin Laden’s terrorist network.

4)  Trap
After 9/11 and the overthrow of the Taliban, an international coalition sought to bring peace and democracy to Afghanistan. But this hope was short-lived.

Mirrors: MirrorAce, MultiUp, Gdrive[GDTOT, Sharer]
Format: MP4
Credits: MVGroup(Harry65)
Series-1 (Complete)

Download – [Single File]

* Video Codec: x264 CABAC High@L4.1
* Video Aspect Ratio: 1080 x 1920
* Video Resolution: 1.778 (16:9
* Audio Codec: MPEG-4 AAC LC
* Audio: English
* Audio Bitrate: 160 kb/s VBR 4800Hz
* Audio Channels: Stereo 2
* Run-Time: 52 mins
* Framerate: 25.97 Fps
* Number of Parts: 4
* Container Mp4
* Part Size: 1.70 GB
* Encoded by: Harry65

Release Notes

Merged English Subtitles-Sorry but in Part 2 .3 when there speak a none english Language the written words seem to be a bit of a mess
General
Complete name                       :Afghanistan.The.Wounded.Land.Series.1.1of4.Kingdom.1080p.HDTV.x264.AAC.MVGroup.org.mp4
Format                                   : MPEG-4
Format profile                           : Base Media
Codec ID                                 : isom (isom/iso2/avc1/mp41)
File size                                : 1.70 GiB
Duration                                 : 52 min 16 s
Overall bit rate mode                    : Variable
Overall bit rate                         : 4 666 kb/s
Movie name                               : Afghanistan.The.Wounded.Land.Series.1.1of4.Kingdom.1080p.HDTV.x264.AAC.MVGroup.org
Performer                                : VideoProc
Genre                                    : Video
Writing application                      : Lavf58.29.100
Comment                                  : Afghanistan.The.Wounded.Land.Series.1.1of4.Kingdom.1080p.HDTV.x264.AAC.MVGroup.org

Video
ID                                       : 1
Format                                   : AVC
Format/Info                              : Advanced Video Codec
Format profile                           : High@L4.1
Format settings                          : 1 Ref Frames
Format settings, CABAC                   : No
Format settings, Reference frames        : 1 frame
Format settings, GOP                     : M=1, N=12
Codec ID                                 : avc1
Codec ID/Info                            : Advanced Video Coding
Duration                                 : 52 min 16 s
Bit rate                                 : 4 510 kb/s
Width                                    : 1 920 pixels
Height                                   : 1 080 pixels
Display aspect ratio                     : 16:9
Frame rate mode                          : Constant
Frame rate                               : 25.000 FPS
Color space                              : YUV
Chroma subsampling                       : 4:2:0
Bit depth                                : 8 bits
Scan type                                : Progressive
Bits/(Pixel*Frame)                       : 0.087
Stream size                              : 1.65 GiB (97%)
Codec configuration box                  : avcC

Audio
ID                                       : 2
Format                                   : AAC LC
Format/Info                              : Advanced Audio Codec Low Complexity
Codec ID                                 : mp4a-40-2
Duration                                 : 52 min 16 s
Bit rate mode                            : Constant
Bit rate                                 : 152 kb/s
Channel(s)                               : 2 channels
Channel layout                           : L R
Sampling rate                            : 48.0 kHz
Frame rate                               : 46.875 FPS (1024 SPF)
Compression mode                         : Lossy
Stream size                              : 56.7 MiB (3%)
Default                                  : Yes
Alternate group                          : 1

Text
ID                                       : 3
Format                                   : Timed Text
Muxing mode                              : sbtl
Codec ID                                 : tx3g
Duration                                 : 51 min 34 s
Bit rate mode                            : Variable
Bit rate                                 : 56 b/s
Stream size                              : 21.3 KiB (0%)
Language                                 : Avestan
Default                                  : Yes
Forced                                   : No
Alternate group                          : 3

Afghanistan.The.Wounded.Land.Series.1.1of4.Kingdom.1080p.HDTV.x264.AAC.MVGroup.org.mp4
Afghanistan.The.Wounded.Land.Series.1.2of4.Jihad.1080p.HDTV.x264.AAC.MVGroup.org.mp4
Afghanistan.The.Wounded.Land.Series.1.3of4.Taliban.1080p.HDTV.x264.AAC.MVGroup.org.mp4
Afghanistan.The.Wounded.Land.Series.1.4of4.Trap.1080p.HDTV.x264.AAC.MVGroup.org.mp4

Readme

Password & My Message

Screenshots