Fast Download Mirrors

Harry Potter Collection (2001-2011) • Movies | UHD.BluRay.2160p.DTS-X.7.1.HEVC.REMUX-FraMeSToR [466 GB]

Harry Potter is a feature film series based on the Harry Potter novels by author J. K. Rowling. The series is distributed by Warner Bros. and consists of eight fantasy films beginning with Harry Potter and the Philosopher’s Stone and ending with Harry Potter and the Deathly Hallows – Part 2. It is the highest-grossing film series in inflation unadjusted dollars, with $7.7 billion in worldwide receipts. Each film is individually among the 50 highest-grossing films in inflation unadjusted dollars and was a critical success.

Mirrors: GDrive [Gadrive, GDToT, Index, Sharer], MultiUp
Format: MKV
Credits: FraMeSToR

Titles in Set

  • Harry Potter and the Philosopher’s Stone
  • Harry Potter and the Chamber of Secrets
  • Harry Potter and the Prisoner of Azkaban
  • Harry Potter and the Goblet of Fire
  • Harry Potter and the Order of the Phoenix
  • Harry Potter and the Half-Blood Prince
  • Harry Potter and the Deathly Hallows – Part 1
  • Harry Potter and the Deathly Hallows – Part 2

Downloads

General
Unique ID                                : 104564868303534433501548903619396632072 (0x4EAA760AA0BC47CC18D5B0C09363FE08)
Complete name                            : Harry.Potter.and.the.Philosophers.Stone.2001.Theatrical.Cut.UHD.BluRay.2160p.DTS-X.7.1.HEVC.REMUX-FraMeSToR.mkv
Format                                   : Matroska
Format version                           : Version 4
File size                                : 69.6 GiB
Duration                                 : 2 h 32 min
Overall bit rate mode                    : Variable
Overall bit rate                         : 65.4 Mb/s
Movie name                               : Harry Potter and the Philosopher's Stone (2001) 4K
Encoded date                             : UTC 2017-12-27 01:19:16
Writing application                      : mkvmerge v19.0.0 ('Brave Captain') 64-bit
Writing library                          : libebml v1.3.5 + libmatroska v1.4.8

Video
ID                                       : 1
Format                                   : HEVC
Format/Info                              : High Efficiency Video Coding
Format profile                           : Main 10@L5.1@High
HDR format                               : SMPTE ST 2086, HDR10 compatible
Codec ID                                 : V_MPEGH/ISO/HEVC
Duration                                 : 2 h 32 min
Bit rate                                 : 60.7 Mb/s
Width                                    : 3 840 pixels
Height                                   : 2 160 pixels
Display aspect ratio                     : 16:9
Frame rate mode                          : Constant
Frame rate                               : 23.976 (24000/1001) FPS
Color space                              : YUV
Chroma subsampling                       : 4:2:0 (Type 2)
Bit depth                                : 10 bits
Bits/(Pixel*Frame)                       : 0.305
Stream size                              : 64.6 GiB (93%)
Writing library                          : ATEME Titan File 3.8.3 (4.8.3.0)        
Default                                  : Yes
Forced                                   : No
Color range                              : Limited
Color primaries                          : BT.2020
Transfer characteristics                 : PQ
Matrix coefficients                      : BT.2020 non-constant
Mastering display color primaries        : Display P3
Mastering display luminance              : min: 0.0050 cd/m2, max: 4000 cd/m2
Maximum Content Light Level              : 552 cd/m2
Maximum Frame-Average Light Level        : 190 cd/m2

Audio
ID                                       : 2
Format                                   : DTS XLL X
Format/Info                              : Digital Theater Systems
Commercial name                          : DTS-HD Master Audio
Codec ID                                 : A_DTS
Duration                                 : 2 h 32 min
Bit rate mode                            : Variable
Bit rate                                 : 4 342 kb/s
Channel(s)                               : 8 channels
Channel(s)_Original                      : Object Based
ChannelLayout_Original                   : Object Based
Sampling rate                            : 48.0 kHz
Frame rate                               : 93.750 FPS (512 SPF)
Bit depth                                : 24 bits
Stream size                              : 4.62 GiB (7%)
Title                                    : DTS: X 7.1
Language                                 : English
Default                                  : Yes
Forced                                   : No

Text #1
ID                                       : 3
Format                                   : PGS
Codec ID                                 : S_HDMV/PGS
Codec ID/Info                            : Picture based subtitle format used on BDs/HD-DVDs
Duration                                 : 2 h 30 min
Bit rate                                 : 22.9 kb/s
Count of elements                        : 2604
Stream size                              : 24.7 MiB (0%)
Title                                    : English (SDH)
Language                                 : English
Default                                  : No
Forced                                   : No

Text #2
ID                                       : 4
Format                                   : PGS
Codec ID                                 : S_HDMV/PGS
Codec ID/Info                            : Picture based subtitle format used on BDs/HD-DVDs
Duration                                 : 2 h 32 min
Bit rate                                 : 12.3 kb/s
Count of elements                        : 2504
Stream size                              : 13.3 MiB (0%)
Title                                    : Arabic
Language                                 : Arabic
Default                                  : No
Forced                                   : No

Text #3
ID                                       : 5
Format                                   : PGS
Codec ID                                 : S_HDMV/PGS
Codec ID/Info                            : Picture based subtitle format used on BDs/HD-DVDs
Duration                                 : 2 h 31 min
Bit rate                                 : 21.2 kb/s
Count of elements                        : 2512
Stream size                              : 23.1 MiB (0%)
Title                                    : Czech
Language                                 : Czech
Default                                  : No
Forced                                   : No

Text #4
ID                                       : 6
Format                                   : PGS
Codec ID                                 : S_HDMV/PGS
Codec ID/Info                            : Picture based subtitle format used on BDs/HD-DVDs
Duration                                 : 2 h 32 min
Bit rate                                 : 19.8 kb/s
Count of elements                        : 2186
Stream size                              : 21.6 MiB (0%)
Title                                    : Danish
Language                                 : Danish
Default                                  : No
Forced                                   : No

Text #5
ID                                       : 7
Format                                   : PGS
Codec ID                                 : S_HDMV/PGS
Codec ID/Info                            : Picture based subtitle format used on BDs/HD-DVDs
Duration                                 : 2 h 31 min
Bit rate                                 : 18.5 kb/s
Count of elements                        : 2046
Stream size                              : 20.1 MiB (0%)
Title                                    : Dutch
Language                                 : Dutch
Default                                  : No
Forced                                   : No

Text #6
ID                                       : 8
Format                                   : PGS
Codec ID                                 : S_HDMV/PGS
Codec ID/Info                            : Picture based subtitle format used on BDs/HD-DVDs
Duration                                 : 2 h 32 min
Bit rate                                 : 19.5 kb/s
Count of elements                        : 2428
Stream size                              : 21.2 MiB (0%)
Title                                    : Finnish
Language                                 : Finnish
Default                                  : No
Forced                                   : No

Text #7
ID                                       : 9
Format                                   : PGS
Codec ID                                 : S_HDMV/PGS
Codec ID/Info                            : Picture based subtitle format used on BDs/HD-DVDs
Duration                                 : 2 h 30 min
Bit rate                                 : 19.5 kb/s
Count of elements                        : 2856
Stream size                              : 21.0 MiB (0%)
Title                                    : French
Language                                 : French
Default                                  : No
Forced                                   : No

Text #8
ID                                       : 10
Format                                   : PGS
Codec ID                                 : S_HDMV/PGS
Codec ID/Info                            : Picture based subtitle format used on BDs/HD-DVDs
Duration                                 : 2 h 31 min
Bit rate                                 : 26.3 kb/s
Count of elements                        : 2640
Stream size                              : 28.6 MiB (0%)
Title                                    : German (SDH)
Language                                 : German
Default                                  : No
Forced                                   : No

Text #9
ID                                       : 11
Format                                   : PGS
Codec ID                                 : S_HDMV/PGS
Codec ID/Info                            : Picture based subtitle format used on BDs/HD-DVDs
Duration                                 : 2 h 30 min
Bit rate                                 : 24.1 kb/s
Count of elements                        : 2666
Stream size                              : 26.0 MiB (0%)
Title                                    : Italian (SDH)
Language                                 : Italian
Default                                  : No
Forced                                   : No

Text #10
ID                                       : 12
Format                                   : PGS
Codec ID                                 : S_HDMV/PGS
Codec ID/Info                            : Picture based subtitle format used on BDs/HD-DVDs
Duration                                 : 2 h 23 min
Bit rate                                 : 20.2 kb/s
Count of elements                        : 3017
Stream size                              : 20.7 MiB (0%)
Title                                    : Japanese
Language                                 : Japanese
Default                                  : No
Forced                                   : No

Text #11
ID                                       : 13
Format                                   : PGS
Codec ID                                 : S_HDMV/PGS
Codec ID/Info                            : Picture based subtitle format used on BDs/HD-DVDs
Duration                                 : 2 h 30 min
Bit rate                                 : 22.8 kb/s
Count of elements                        : 2730
Stream size                              : 24.6 MiB (0%)
Title                                    : Norwegian
Language                                 : Norwegian
Default                                  : No
Forced                                   : No

Text #12
ID                                       : 14
Format                                   : PGS
Codec ID                                 : S_HDMV/PGS
Codec ID/Info                            : Picture based subtitle format used on BDs/HD-DVDs
Duration                                 : 2 h 30 min
Bit rate                                 : 18.5 kb/s
Count of elements                        : 2338
Stream size                              : 20.0 MiB (0%)
Title                                    : Polish
Language                                 : Polish
Default                                  : No
Forced                                   : No

Text #13
ID                                       : 15
Format                                   : PGS
Codec ID                                 : S_HDMV/PGS
Codec ID/Info                            : Picture based subtitle format used on BDs/HD-DVDs
Duration                                 : 2 h 31 min
Bit rate                                 : 21.6 kb/s
Count of elements                        : 2510
Stream size                              : 23.4 MiB (0%)
Title                                    : Portuguese (Brazilian)
Language                                 : Portuguese
Default                                  : No
Forced                                   : No

Text #14
ID                                       : 16
Format                                   : PGS
Codec ID                                 : S_HDMV/PGS
Codec ID/Info                            : Picture based subtitle format used on BDs/HD-DVDs
Duration                                 : 2 h 30 min
Bit rate                                 : 24.2 kb/s
Count of elements                        : 3146
Stream size                              : 26.1 MiB (0%)
Title                                    : Spanish (Castilian)
Language                                 : Spanish
Default                                  : No
Forced                                   : No

Text #15
ID                                       : 17
Format                                   : PGS
Codec ID                                 : S_HDMV/PGS
Codec ID/Info                            : Picture based subtitle format used on BDs/HD-DVDs
Duration                                 : 2 h 30 min
Bit rate                                 : 23.5 kb/s
Count of elements                        : 2754
Stream size                              : 25.3 MiB (0%)
Title                                    : Spanish (Latin American)
Language                                 : Spanish
Default                                  : No
Forced                                   : No

Text #16
ID                                       : 18
Format                                   : PGS
Codec ID                                 : S_HDMV/PGS
Codec ID/Info                            : Picture based subtitle format used on BDs/HD-DVDs
Duration                                 : 2 h 30 min
Bit rate                                 : 17.2 kb/s
Count of elements                        : 1692
Stream size                              : 18.6 MiB (0%)
Title                                    : Swedish
Language                                 : Swedish
Default                                  : No
Forced                                   : No

Menu
00:00:00.000                             : en:Doorstep Delivery
00:04:05.412                             : en:Vanishing Glass
00:08:11.157                             : en:Letters From No One
00:12:17.403                             : en:Keeper of the Keys
00:18:25.271                             : en:Diagon Alley
00:21:43.636                             : en:Gringotts
00:24:41.647                             : en:Ollivanders
00:28:49.561                             : en:The Boy Who Lived
00:31:05.197                             : en:Platform 9 3/4
00:34:05.543                             : en:Ron and Hermione
00:37:49.601                             : en:Welcome to Hogwarts
00:41:29.487                             : en:Sorting Hat
00:46:13.437                             : en:Nick and Other Residents
00:50:29.026                             : en:Potions and Parcels
00:55:04.301                             : en:New Seeker
01:00:55.652                             : en:Three-Headed Sentinel
01:03:43.987                             : en:Facts and Feathers
01:07:48.231                             : en:Mountain Troll
01:13:49.258                             : en:Quidditch
01:20:17.980                             : en:Interference Overcome
01:23:54.529                             : en:Christmas Gift
01:28:32.474                             : en:Cloaked in Darkness
01:31:42.497                             : en:Mirror of Erised
01:36:42.630                             : en:Norbert
01:42:34.815                             : en:Forbidden Forest
01:49:05.038                             : en:Up to Something
01:53:21.628                             : en:Through the Trapdoor
01:58:09.749                             : en:Wizards' Chess
02:03:44.751                             : en:Sacrifice Play
02:06:56.108                             : en:Man with Two Faces
02:10:55.347                             : en:Magic Touch
02:14:18.884                             : en:Mark of Love
02:17:29.575                             : en:House Cup Winner
02:21:44.663                             : en:Not Really Going Home
02:24:10.809                             : en:Credits

General
Unique ID                                : 75929214881133390128548615708861713845 (0x391F6F52F10E61CEBAC2CC3403A6CDB5)
Complete name                            : Harry.Potter.and.the.Chamber.of.Secrets.2002.Theatrical.Cut.UHD.BluRay.2160p.DTS-X.7.1.HEVC.REMUX-FraMeSToR.mkv
Format                                   : Matroska
Format version                           : Version 4
File size                                : 72.7 GiB
Duration                                 : 2 h 40 min
Overall bit rate mode                    : Variable
Overall bit rate                         : 64.7 Mb/s
Movie name                               : Harry Potter and the Chamber of Secrets (2002) 4K
Encoded date                             : UTC 2017-12-27 12:56:14
Writing application                      : mkvmerge v19.0.0 ('Brave Captain') 64-bit
Writing library                          : libebml v1.3.5 + libmatroska v1.4.8

Video
ID                                       : 1
Format                                   : HEVC
Format/Info                              : High Efficiency Video Coding
Format profile                           : Main 10@L5.1@High
HDR format                               : SMPTE ST 2086, HDR10 compatible
Codec ID                                 : V_MPEGH/ISO/HEVC
Duration                                 : 2 h 40 min
Bit rate                                 : 60.3 Mb/s
Width                                    : 3 840 pixels
Height                                   : 2 160 pixels
Display aspect ratio                     : 16:9
Frame rate mode                          : Constant
Frame rate                               : 23.976 (24000/1001) FPS
Color space                              : YUV
Chroma subsampling                       : 4:2:0 (Type 2)
Bit depth                                : 10 bits
Bits/(Pixel*Frame)                       : 0.303
Stream size                              : 67.8 GiB (93%)
Writing library                          : ATEME Titan File 3.8.3 (4.8.3.0)        
Default                                  : Yes
Forced                                   : No
Color range                              : Limited
Color primaries                          : BT.2020
Transfer characteristics                 : PQ
Matrix coefficients                      : BT.2020 non-constant
Mastering display color primaries        : Display P3
Mastering display luminance              : min: 0.0050 cd/m2, max: 4000 cd/m2
Maximum Content Light Level              : 2856 cd/m2
Maximum Frame-Average Light Level        : 222 cd/m2

Audio
ID                                       : 2
Format                                   : DTS XLL X
Format/Info                              : Digital Theater Systems
Commercial name                          : DTS-HD Master Audio
Codec ID                                 : A_DTS
Duration                                 : 2 h 40 min
Bit rate mode                            : Variable
Bit rate                                 : 4 151 kb/s
Channel(s)                               : 8 channels
Channel(s)_Original                      : Object Based
ChannelLayout_Original                   : Object Based
Sampling rate                            : 48.0 kHz
Frame rate                               : 93.750 FPS (512 SPF)
Bit depth                                : 24 bits
Stream size                              : 4.67 GiB (6%)
Title                                    : DTS:X 7.1
Language                                 : English
Default                                  : Yes
Forced                                   : No

Text #1
ID                                       : 3
Format                                   : PGS
Codec ID                                 : S_HDMV/PGS
Codec ID/Info                            : Picture based subtitle format used on BDs/HD-DVDs
Duration                                 : 2 h 39 min
Bit rate                                 : 26.9 kb/s
Count of elements                        : 3158
Stream size                              : 30.7 MiB (0%)
Title                                    : English (SDH)
Language                                 : English
Default                                  : No
Forced                                   : No

Text #2
ID                                       : 4
Format                                   : PGS
Codec ID                                 : S_HDMV/PGS
Codec ID/Info                            : Picture based subtitle format used on BDs/HD-DVDs
Duration                                 : 2 h 40 min
Bit rate                                 : 21.4 kb/s
Count of elements                        : 3298
Stream size                              : 24.6 MiB (0%)
Title                                    : French
Language                                 : French
Default                                  : No
Forced                                   : No

Text #3
ID                                       : 5
Format                                   : PGS
Codec ID                                 : S_HDMV/PGS
Codec ID/Info                            : Picture based subtitle format used on BDs/HD-DVDs
Duration                                 : 2 h 40 min
Bit rate                                 : 29.9 kb/s
Count of elements                        : 3188
Stream size                              : 34.4 MiB (0%)
Title                                    : German (SDH)
Language                                 : German
Default                                  : No
Forced                                   : No

Text #4
ID                                       : 6
Format                                   : PGS
Codec ID                                 : S_HDMV/PGS
Codec ID/Info                            : Picture based subtitle format used on BDs/HD-DVDs
Duration                                 : 2 h 40 min
Bit rate                                 : 26.6 kb/s
Count of elements                        : 3170
Stream size                              : 30.5 MiB (0%)
Title                                    : Italian (SDH)
Language                                 : Italian
Default                                  : No
Forced                                   : No

Text #5
ID                                       : 7
Format                                   : PGS
Codec ID                                 : S_HDMV/PGS
Codec ID/Info                            : Picture based subtitle format used on BDs/HD-DVDs
Duration                                 : 2 h 39 min
Bit rate                                 : 20.4 kb/s
Count of elements                        : 3524
Stream size                              : 23.3 MiB (0%)
Title                                    : Japanese
Language                                 : Japanese
Default                                  : No
Forced                                   : No

Text #6
ID                                       : 8
Format                                   : PGS
Codec ID                                 : S_HDMV/PGS
Codec ID/Info                            : Picture based subtitle format used on BDs/HD-DVDs
Duration                                 : 2 h 40 min
Bit rate                                 : 22.5 kb/s
Count of elements                        : 2938
Stream size                              : 25.8 MiB (0%)
Title                                    : Polish
Language                                 : Polish
Default                                  : No
Forced                                   : No

Text #7
ID                                       : 9
Format                                   : PGS
Codec ID                                 : S_HDMV/PGS
Codec ID/Info                            : Picture based subtitle format used on BDs/HD-DVDs
Duration                                 : 2 h 40 min
Bit rate                                 : 25.8 kb/s
Count of elements                        : 2912
Stream size                              : 29.6 MiB (0%)
Title                                    : Portuguese (Brazilian)
Language                                 : Portuguese
Default                                  : No
Forced                                   : No

Text #8
ID                                       : 10
Format                                   : PGS
Codec ID                                 : S_HDMV/PGS
Codec ID/Info                            : Picture based subtitle format used on BDs/HD-DVDs
Duration                                 : 2 h 40 min
Bit rate                                 : 25.0 kb/s
Count of elements                        : 3024
Stream size                              : 28.7 MiB (0%)
Title                                    : Spanish (Castilian)
Language                                 : Spanish
Default                                  : No
Forced                                   : No

Text #9
ID                                       : 11
Format                                   : PGS
Codec ID                                 : S_HDMV/PGS
Codec ID/Info                            : Picture based subtitle format used on BDs/HD-DVDs
Duration                                 : 2 h 40 min
Bit rate                                 : 25.1 kb/s
Count of elements                        : 3020
Stream size                              : 28.8 MiB (0%)
Title                                    : Spanish (Latin American)
Language                                 : Spanish
Default                                  : No
Forced                                   : No

Menu
00:00:00.000                             : en:In a Cage
00:03:00.972                             : en:Dobby's Warning
00:07:55.517                             : en:Car Rescue
00:10:39.889                             : en:The Burrow
00:14:07.055                             : en:To Diagon Aley
00:17:57.702                             : en:Flourish and Blotts
00:22:16.085                             : en:Flying to Hogwarts
00:25:49.590                             : en:Whomping Willow
00:28:50.312                             : en:Not Expelled...Today
00:31:07.949                             : en:Mandrakes; Ron's Howler
00:35:14.154                             : en:Gilderoy Lockhart
00:38:00.361                             : en:Mudbloods and Murmurs
00:42:47.940                             : en:Writing on the Wall
00:48:16.102                             : en:About the Chamber
00:52:16.091                             : en:Rogue Bludger
00:57:56.932                             : en:No Longer Safe
01:03:13.832                             : en:Dueling Club
01:07:50.483                             : en:A Parselmouth
01:11:56.103                             : en:Nothing to Tell
01:17:22.346                             : en:Polyjuice Potion
01:21:33.806                             : en:Harry and Ron Transformed
01:25:39.885                             : en:The Diary
01:29:42.210                             : en:Tom Riddle
01:33:30.313                             : en:Petrified
01:37:42.857                             : en:Cornelius Fudge
01:42:49.038                             : en:Aragog
01:47:01.582                             : en:Spider Attack
01:51:07.953                             : en:Missing
01:55:26.169                             : en:Chamber of Secrets
02:00:53.246                             : en:Backfire
02:04:09.734                             : en:Heir of Slytherin
02:09:32.264                             : en:The Basilisk
02:14:32.398                             : en:Healing Powers
02:18:05.903                             : en:Out of the Hat
02:21:20.180                             : en:Dobby's Reward
02:26:35.412                             : en:Welcome Back
02:31:43.052                             : en:End Credits

General
Unique ID                                : 212820561530190930284227197314575398013 (0xA01BBFCD17F6A686FC756CF57F60747D)
Complete name                            : Harry.Potter.and.the.Prisoner.of.Azkaban.2004.UHD.BluRay.2160p.DTS-X.7.1.HEVC.REMUX-FraMeSToR.mkv
Format                                   : Matroska
Format version                           : Version 4
File size                                : 63.5 GiB
Duration                                 : 2 h 21 min
Overall bit rate mode                    : Variable
Overall bit rate                         : 64.2 Mb/s
Movie name                               : Harry Potter and the Prisoner of Azkaban (2004) 4K
Encoded date                             : UTC 2017-12-27 19:22:04
Writing application                      : mkvmerge v19.0.0 ('Brave Captain') 64-bit
Writing library                          : libebml v1.3.5 + libmatroska v1.4.8

Video
ID                                       : 1
Format                                   : HEVC
Format/Info                              : High Efficiency Video Coding
Format profile                           : Main 10@L5.1@High
HDR format                               : SMPTE ST 2086, HDR10 compatible
Codec ID                                 : V_MPEGH/ISO/HEVC
Duration                                 : 2 h 21 min
Bit rate                                 : 59.8 Mb/s
Width                                    : 3 840 pixels
Height                                   : 2 160 pixels
Display aspect ratio                     : 16:9
Frame rate mode                          : Constant
Frame rate                               : 23.976 (24000/1001) FPS
Color space                              : YUV
Chroma subsampling                       : 4:2:0 (Type 2)
Bit depth                                : 10 bits
Bits/(Pixel*Frame)                       : 0.300
Stream size                              : 59.1 GiB (93%)
Writing library                          : ATEME Titan File 3.8.3 (4.8.3.0)        
Default                                  : Yes
Forced                                   : No
Color range                              : Limited
Color primaries                          : BT.2020
Transfer characteristics                 : PQ
Matrix coefficients                      : BT.2020 non-constant
Mastering display color primaries        : Display P3
Mastering display luminance              : min: 0.0050 cd/m2, max: 4000 cd/m2
Maximum Content Light Level              : 1838 cd/m2
Maximum Frame-Average Light Level        : 277 cd/m2

Audio
ID                                       : 2
Format                                   : DTS XLL X
Format/Info                              : Digital Theater Systems
Commercial name                          : DTS-HD Master Audio
Codec ID                                 : A_DTS
Duration                                 : 2 h 21 min
Bit rate mode                            : Variable
Bit rate                                 : 4 227 kb/s
Channel(s)                               : 8 channels
Channel(s)_Original                      : Object Based
ChannelLayout_Original                   : Object Based
Sampling rate                            : 48.0 kHz
Frame rate                               : 93.750 FPS (512 SPF)
Bit depth                                : 24 bits
Stream size                              : 4.18 GiB (7%)
Title                                    : DTS:X 7.1
Language                                 : English
Default                                  : Yes
Forced                                   : No

Text #1
ID                                       : 3
Format                                   : PGS
Codec ID                                 : S_HDMV/PGS
Codec ID/Info                            : Picture based subtitle format used on BDs/HD-DVDs
Duration                                 : 2 h 21 min
Bit rate                                 : 30.2 kb/s
Count of elements                        : 3250
Stream size                              : 30.5 MiB (0%)
Title                                    : English (SDH)
Language                                 : English
Default                                  : No
Forced                                   : No

Text #2
ID                                       : 4
Format                                   : PGS
Codec ID                                 : S_HDMV/PGS
Codec ID/Info                            : Picture based subtitle format used on BDs/HD-DVDs
Duration                                 : 2 h 21 min
Bit rate                                 : 21.7 kb/s
Count of elements                        : 2930
Stream size                              : 21.9 MiB (0%)
Title                                    : French
Language                                 : French
Default                                  : No
Forced                                   : No

Text #3
ID                                       : 5
Format                                   : PGS
Codec ID                                 : S_HDMV/PGS
Codec ID/Info                            : Picture based subtitle format used on BDs/HD-DVDs
Duration                                 : 2 h 21 min
Bit rate                                 : 33.6 kb/s
Count of elements                        : 3266
Stream size                              : 33.9 MiB (0%)
Title                                    : German (SDH)
Language                                 : German
Default                                  : No
Forced                                   : No

Text #4
ID                                       : 6
Format                                   : PGS
Codec ID                                 : S_HDMV/PGS
Codec ID/Info                            : Picture based subtitle format used on BDs/HD-DVDs
Duration                                 : 2 h 21 min
Bit rate                                 : 30.6 kb/s
Count of elements                        : 3270
Stream size                              : 30.9 MiB (0%)
Title                                    : Italian (SDH)
Language                                 : Italian
Default                                  : No
Forced                                   : No

Text #5
ID                                       : 7
Format                                   : PGS
Codec ID                                 : S_HDMV/PGS
Codec ID/Info                            : Picture based subtitle format used on BDs/HD-DVDs
Duration                                 : 2 h 20 min
Bit rate                                 : 20.3 kb/s
Count of elements                        : 3265
Stream size                              : 20.4 MiB (0%)
Title                                    : Japanese
Language                                 : Japanese
Default                                  : No
Forced                                   : No

Text #6
ID                                       : 8
Format                                   : PGS
Codec ID                                 : S_HDMV/PGS
Codec ID/Info                            : Picture based subtitle format used on BDs/HD-DVDs
Duration                                 : 2 h 21 min
Bit rate                                 : 26.8 kb/s
Count of elements                        : 2824
Stream size                              : 27.0 MiB (0%)
Title                                    : Portuguese (Brazilian)
Language                                 : Portuguese
Default                                  : No
Forced                                   : No

Text #7
ID                                       : 9
Format                                   : PGS
Codec ID                                 : S_HDMV/PGS
Codec ID/Info                            : Picture based subtitle format used on BDs/HD-DVDs
Duration                                 : 2 h 21 min
Bit rate                                 : 25.0 kb/s
Count of elements                        : 2828
Stream size                              : 25.2 MiB (0%)
Title                                    : Spanish (Castilian)
Language                                 : Spanish
Default                                  : No
Forced                                   : No

Text #8
ID                                       : 10
Format                                   : PGS
Codec ID                                 : S_HDMV/PGS
Codec ID/Info                            : Picture based subtitle format used on BDs/HD-DVDs
Duration                                 : 2 h 20 min
Bit rate                                 : 25.1 kb/s
Count of elements                        : 2774
Stream size                              : 25.2 MiB (0%)
Title                                    : Spanish (Latin American)
Language                                 : Spanish
Default                                  : No
Forced                                   : No

Menu
00:00:00.000                             : en:Under Covers Prologue
00:01:40.100                             : en:Aunt Marge's Big Mistake
00:06:36.229                             : en:The Knight Bus
00:12:45.932                             : en:The Leaky Cauldron
00:14:52.517                             : en:The Monster Book of Monsters
00:16:12.513                             : en:In Grave Danger
00:18:56.218                             : en:The Dementor
00:23:50.387                             : en:Welcome and Warning
00:28:50.729                             : en:Tea Leaves
00:31:21.838                             : en:Backbeak
00:38:50.161                             : en:Boggart in the Wardrobe
00:44:45.725                             : en:Talent for Trouble
00:47:37.813                             : en:Flight of the Fat Lady
00:49:39.935                             : en:Substitute Teacher
00:53:43.345                             : en:Grim Defeat
00:57:28.403                             : en:The Marauder's Map
01:01:23.722                             : en:Who's There?
01:03:23.758                             : en:I Hope He Finds Me
01:07:10.985                             : en:The Patronus
01:11:53.476                             : en:Seeing the Impossible
01:19:10.079                             : en:Professor Trelarney's Prediction
01:22:29.945                             : en:Witness to an Execution
01:27:29.202                             : en:The Whomping Willow
01:30:13.366                             : en:Sirius Black
01:34:19.028                             : en:Peter Pettigrew
01:36:57.228                             : en:Friends Become Foes
01:42:24.472                             : en:The Dementor's Kiss
01:45:40.334                             : en:Hermione's Secret
01:50:03.597                             : en:Onlookers to the Rescue
01:55:33.343                             : en:Saving Lives
02:00:07.409                             : en:Truly Seen, Truly Free
02:03:16.055                             : en:Two Places at Once
02:06:02.513                             : en:Mischief Managed
02:08:42.924                             : en:The Firebolt
02:09:47.405                             : en:End Credits Map

General
Unique ID                                : 111579078344540235940810015920424957617 (0x53F1594BF2130EB75B9F1582FB6736B1)
Complete name                            : Harry.Potter.and.the.Goblet.of.Fire.2005.UHD.BluRay.2160p.DTS-X.7.1.HEVC.REMUX-FraMeSToR.mkv
Format                                   : Matroska
Format version                           : Version 4
File size                                : 52.8 GiB
Duration                                 : 2 h 37 min
Overall bit rate mode                    : Variable
Overall bit rate                         : 48.1 Mb/s
Movie name                               : Harry Potter and the Goblet of Fire (2005) 4K
Encoded date                             : UTC 2017-12-27 20:03:33
Writing application                      : mkvmerge v19.0.0 ('Brave Captain') 64-bit
Writing library                          : libebml v1.3.5 + libmatroska v1.4.8

Video
ID                                       : 1
Format                                   : HEVC
Format/Info                              : High Efficiency Video Coding
Format profile                           : Main 10@L5.1@High
HDR format                               : SMPTE ST 2086, HDR10 compatible
Codec ID                                 : V_MPEGH/ISO/HEVC
Duration                                 : 2 h 37 min
Bit rate                                 : 43.9 Mb/s
Width                                    : 3 840 pixels
Height                                   : 2 160 pixels
Display aspect ratio                     : 16:9
Frame rate mode                          : Constant
Frame rate                               : 23.976 (24000/1001) FPS
Color space                              : YUV
Chroma subsampling                       : 4:2:0 (Type 2)
Bit depth                                : 10 bits
Bits/(Pixel*Frame)                       : 0.221
Stream size                              : 48.1 GiB (91%)
Writing library                          : ATEME Titan File 3.8.3 (4.8.3.0)        
Default                                  : Yes
Forced                                   : No
Color range                              : Limited
Color primaries                          : BT.2020
Transfer characteristics                 : PQ
Matrix coefficients                      : BT.2020 non-constant
Mastering display color primaries        : Display P3
Mastering display luminance              : min: 0.0050 cd/m2, max: 4000 cd/m2
Maximum Content Light Level              : 2848 cd/m2
Maximum Frame-Average Light Level        : 617 cd/m2

Audio
ID                                       : 2
Format                                   : DTS XLL X
Format/Info                              : Digital Theater Systems
Commercial name                          : DTS-HD Master Audio
Codec ID                                 : A_DTS
Duration                                 : 2 h 37 min
Bit rate mode                            : Variable
Bit rate                                 : 4 051 kb/s
Channel(s)                               : 8 channels
Channel(s)_Original                      : Object Based
ChannelLayout_Original                   : Object Based
Sampling rate                            : 48.0 kHz
Frame rate                               : 93.750 FPS (512 SPF)
Bit depth                                : 24 bits
Stream size                              : 4.45 GiB (8%)
Title                                    : DTS:X 7.1
Language                                 : English
Default                                  : Yes
Forced                                   : No

Text #1
ID                                       : 3
Format                                   : PGS
Codec ID                                 : S_HDMV/PGS
Codec ID/Info                            : Picture based subtitle format used on BDs/HD-DVDs
Duration                                 : 2 h 36 min
Bit rate                                 : 27.1 kb/s
Count of elements                        : 3608
Stream size                              : 30.3 MiB (0%)
Title                                    : English (SDH)
Language                                 : English
Default                                  : No
Forced                                   : No

Text #2
ID                                       : 4
Format                                   : PGS
Codec ID                                 : S_HDMV/PGS
Codec ID/Info                            : Picture based subtitle format used on BDs/HD-DVDs
Duration                                 : 2 h 35 min
Bit rate                                 : 18.8 kb/s
Count of elements                        : 3096
Stream size                              : 21.0 MiB (0%)
Title                                    : French
Language                                 : French
Default                                  : No
Forced                                   : No

Text #3
ID                                       : 5
Format                                   : PGS
Codec ID                                 : S_HDMV/PGS
Codec ID/Info                            : Picture based subtitle format used on BDs/HD-DVDs
Duration                                 : 2 h 36 min
Bit rate                                 : 30.1 kb/s
Count of elements                        : 3656
Stream size                              : 33.7 MiB (0%)
Title                                    : German (SDH)
Language                                 : German
Default                                  : No
Forced                                   : No

Text #4
ID                                       : 6
Format                                   : PGS
Codec ID                                 : S_HDMV/PGS
Codec ID/Info                            : Picture based subtitle format used on BDs/HD-DVDs
Duration                                 : 2 h 36 min
Bit rate                                 : 27.0 kb/s
Count of elements                        : 3616
Stream size                              : 30.2 MiB (0%)
Title                                    : Italian (SDH)
Language                                 : Italian
Default                                  : No
Forced                                   : No

Text #5
ID                                       : 7
Format                                   : PGS
Codec ID                                 : S_HDMV/PGS
Codec ID/Info                            : Picture based subtitle format used on BDs/HD-DVDs
Duration                                 : 2 h 22 min
Bit rate                                 : 19.9 kb/s
Count of elements                        : 3415
Stream size                              : 20.3 MiB (0%)
Title                                    : Japanese
Language                                 : Japanese
Default                                  : No
Forced                                   : No

Text #6
ID                                       : 8
Format                                   : PGS
Codec ID                                 : S_HDMV/PGS
Codec ID/Info                            : Picture based subtitle format used on BDs/HD-DVDs
Duration                                 : 2 h 36 min
Bit rate                                 : 23.4 kb/s
Count of elements                        : 2962
Stream size                              : 26.1 MiB (0%)
Title                                    : Portuguese (Brazilian)
Language                                 : Portuguese
Default                                  : No
Forced                                   : No

Text #7
ID                                       : 9
Format                                   : PGS
Codec ID                                 : S_HDMV/PGS
Codec ID/Info                            : Picture based subtitle format used on BDs/HD-DVDs
Duration                                 : 2 h 36 min
Bit rate                                 : 22.4 kb/s
Count of elements                        : 2988
Stream size                              : 25.0 MiB (0%)
Title                                    : Spanish (Castilian)
Language                                 : Spanish
Default                                  : No
Forced                                   : No

Text #8
ID                                       : 10
Format                                   : PGS
Codec ID                                 : S_HDMV/PGS
Codec ID/Info                            : Picture based subtitle format used on BDs/HD-DVDs
Duration                                 : 2 h 36 min
Bit rate                                 : 22.6 kb/s
Count of elements                        : 2996
Stream size                              : 25.2 MiB (0%)
Title                                    : Spanish (Latin American)
Language                                 : Spanish
Default                                  : No
Forced                                   : No

Menu
00:00:00.000                             : en:The Riddle House
00:03:46.560                             : en:The Hungrian Horntail
00:06:09.369                             : en:Sirius Conversation
00:09:50.089                             : en:Rita Keeter
00:13:45.324                             : en:Let Events Unfold
00:19:14.987                             : en:The Four Champions
00:23:09.388                             : en:The Unforgivable Curses
00:29:01.573                             : en:The Goblet of Fire
00:36:26.684                             : en:The Triwizard Tournament
00:39:05.009                             : en:The Dark Mark
00:41:32.490                             : en:The Quidditch World Cup
00:45:36.400                             : en:The Portkey
00:49:07.778                             : en:Best Foot Forward
00:54:06.243                             : en:The First Task
01:02:46.596                             : en:Tranforming Malfoy
01:09:12.982                             : en:An Unexpected Challenge
01:14:43.979                             : en:The Yule Ball
01:22:27.609                             : en:The Egg's Clue
01:30:34.763                             : en:The Second Task
01:39:29.297                             : en:Never Whole Again
01:42:42.490                             : en:The Pensieve
01:47:22.936                             : en:Dreams and Suspicions
01:50:19.279                             : en:The Third Task
01:58:54.461                             : en:Flesh, Blood and Bone
02:02:02.315                             : en:The Death Eaters
02:06:36.589                             : en:Priori Incantatem
02:10:01.627                             : en:Veritaserum
02:17:38.083                             : en:Parting Ways
02:23:48.620                             : en:End Credits

General
Unique ID                                : 158612124928383750089893576335784623703 (0x775395873355D23BDA23BEA4B3A73E57)
Complete name                            : Harry.Potter.and.the.Order.of.the.Phoenix.2007.UHD.BluRay.2160p.DTS-X.7.1.HEVC.REMUX-FraMeSToR.mkv
Format                                   : Matroska
Format version                           : Version 4
File size                                : 51.4 GiB
Duration                                 : 2 h 18 min
Overall bit rate mode                    : Variable
Overall bit rate                         : 53.2 Mb/s
Movie name                               : Harry Potter and the Order of the Phoenix (2007) 4K
Encoded date                             : UTC 2017-12-31 23:56:03
Writing application                      : mkvmerge v19.0.0 ('Brave Captain') 64-bit
Writing library                          : libebml v1.3.5 + libmatroska v1.4.8

Video
ID                                       : 1
Format                                   : HEVC
Format/Info                              : High Efficiency Video Coding
Format profile                           : Main 10@L5.1@High
HDR format                               : SMPTE ST 2086, HDR10 compatible
Codec ID                                 : V_MPEGH/ISO/HEVC
Duration                                 : 2 h 18 min
Bit rate                                 : 49.1 Mb/s
Width                                    : 3 840 pixels
Height                                   : 2 160 pixels
Display aspect ratio                     : 16:9
Frame rate mode                          : Constant
Frame rate                               : 23.976 (24000/1001) FPS
Color space                              : YUV
Chroma subsampling                       : 4:2:0 (Type 2)
Bit depth                                : 10 bits
Bits/(Pixel*Frame)                       : 0.247
Stream size                              : 47.4 GiB (92%)
Default                                  : Yes
Forced                                   : No
Color range                              : Limited
Color primaries                          : BT.2020
Transfer characteristics                 : PQ
Matrix coefficients                      : BT.2020 non-constant
Mastering display color primaries        : Display P3
Mastering display luminance              : min: 0.0050 cd/m2, max: 4000 cd/m2
Maximum Content Light Level              : 500 cd/m2
Maximum Frame-Average Light Level        : 200 cd/m2

Audio
ID                                       : 2
Format                                   : DTS XLL X
Format/Info                              : Digital Theater Systems
Commercial name                          : DTS-HD Master Audio
Codec ID                                 : A_DTS
Duration                                 : 2 h 18 min
Bit rate mode                            : Variable
Bit rate                                 : 3 953 kb/s
Channel(s)                               : 8 channels
Channel(s)_Original                      : Object Based
ChannelLayout_Original                   : Object Based
Sampling rate                            : 48.0 kHz
Frame rate                               : 93.750 FPS (512 SPF)
Bit depth                                : 24 bits
Stream size                              : 3.82 GiB (7%)
Title                                    : DTS:X 7.1
Language                                 : English
Default                                  : Yes
Forced                                   : No

Text #1
ID                                       : 3
Format                                   : PGS
Codec ID                                 : S_HDMV/PGS
Codec ID/Info                            : Picture based subtitle format used on BDs/HD-DVDs
Duration                                 : 2 h 17 min
Bit rate                                 : 31.7 kb/s
Count of elements                        : 3046
Stream size                              : 31.2 MiB (0%)
Title                                    : English (SDH)
Language                                 : English
Default                                  : No
Forced                                   : No

Text #2
ID                                       : 4
Format                                   : PGS
Codec ID                                 : S_HDMV/PGS
Codec ID/Info                            : Picture based subtitle format used on BDs/HD-DVDs
Duration                                 : 2 h 17 min
Bit rate                                 : 22.5 kb/s
Count of elements                        : 2742
Stream size                              : 22.1 MiB (0%)
Title                                    : French
Language                                 : French
Default                                  : No
Forced                                   : No

Text #3
ID                                       : 5
Format                                   : PGS
Codec ID                                 : S_HDMV/PGS
Codec ID/Info                            : Picture based subtitle format used on BDs/HD-DVDs
Duration                                 : 2 h 7 min
Bit rate                                 : 20.3 kb/s
Count of elements                        : 2853
Stream size                              : 18.5 MiB (0%)
Title                                    : Japanese
Language                                 : Japanese
Default                                  : No
Forced                                   : No

Text #4
ID                                       : 6
Format                                   : PGS
Codec ID                                 : S_HDMV/PGS
Codec ID/Info                            : Picture based subtitle format used on BDs/HD-DVDs
Duration                                 : 2 h 17 min
Bit rate                                 : 26.6 kb/s
Count of elements                        : 2620
Stream size                              : 26.2 MiB (0%)
Title                                    : Portuguese (Brazilian)
Language                                 : Portuguese
Default                                  : No
Forced                                   : No

Text #5
ID                                       : 7
Format                                   : PGS
Codec ID                                 : S_HDMV/PGS
Codec ID/Info                            : Picture based subtitle format used on BDs/HD-DVDs
Duration                                 : 2 h 17 min
Bit rate                                 : 25.2 kb/s
Count of elements                        : 2574
Stream size                              : 24.8 MiB (0%)
Title                                    : Spanish (Latin American)
Language                                 : Spanish
Default                                  : No
Forced                                   : No

Menu
00:00:00.000                             : en:Dudley Demented
00:04:50.832                             : en:The Advance Guard
00:10:16.533                             : en:Number 12, Grimmauld Place
00:15:19.877                             : en:The Order of the Phoenix
00:17:43.020                             : en:The Ministry of Magic
00:20:52.209                             : en:The Hearing
00:25:33.490                             : en:The Originals
00:28:07.144                             : en:Luna Lovegood
00:30:20.777                             : en:Preserve, Perfect and Prune
00:34:53.758                             : en:Professor Umbridge's Class
00:37:40.925                             : en:Detention with Dolores
00:41:48.297                             : en:Thestrals and Sympathy
00:44:57.361                             : en:The Hogwarts High Inquisitor
00:50:57.221                             : en:In the Hog's Head
00:56:37.227                             : en:Dumbledore's Army
01:03:28.471                             : en:Under the Mistletoe
01:07:39.013                             : en:Occlumency
01:11:15.855                             : en:House of Black
01:16:30.127                             : en:Hagrid's Tale
01:19:16.460                             : en:Unquiet Escape
01:25:30.792                             : en:Grawp
01:31:30.527                             : en:Snape's Worst Memory
01:34:49.642                             : en:O.W.L.S.
01:37:42.273                             : en:Out of the Fire
01:41:40.136                             : en:Fight and Flight
01:45:59.103                             : en:The Department of Mysteries
01:48:37.010                             : en:Beyond the Veil
01:52:40.754                             : en:Side By Side
01:57:30.543                             : en:Wizards Duel
02:03:32.989                             : en:The Lost Prophecy
02:05:50.460                             : en:A Way of Coming Back
02:08:26.866                             : en:End Credits

General
Unique ID                                : 216519556714635519491324069339561492928 (0xA2E42658209A39B2C19B84E7B95481C0)
Complete name                            : Harry.Potter.and.the.Half-Blood.Prince.2009.PROPER.UHD.BluRay.2160p.DTS-X.7.1.HEVC.REMUX-FraMeSToR.mkv
Format                                   : Matroska
Format version                           : Version 4
File size                                : 58.0 GiB
Duration                                 : 2 h 33 min
Overall bit rate mode                    : Variable
Overall bit rate                         : 54.1 Mb/s
Movie name                               : Harry Potter and the Half-Blood Prince (2009) 4K
Encoded date                             : UTC 2017-12-31 09:55:15
Writing application                      : mkvmerge v19.0.0 ('Brave Captain') 64-bit
Writing library                          : libebml v1.3.5 + libmatroska v1.4.8

Video
ID                                       : 1
Format                                   : HEVC
Format/Info                              : High Efficiency Video Coding
Format profile                           : Main 10@L5.1@High
HDR format                               : SMPTE ST 2086, HDR10 compatible
Codec ID                                 : V_MPEGH/ISO/HEVC
Duration                                 : 2 h 33 min
Bit rate                                 : 49.9 Mb/s
Width                                    : 3 840 pixels
Height                                   : 2 160 pixels
Display aspect ratio                     : 16:9
Frame rate mode                          : Constant
Frame rate                               : 23.976 (24000/1001) FPS
Color space                              : YUV
Chroma subsampling                       : 4:2:0 (Type 2)
Bit depth                                : 10 bits
Bits/(Pixel*Frame)                       : 0.251
Stream size                              : 53.6 GiB (92%)
Default                                  : Yes
Forced                                   : No
Color range                              : Limited
Color primaries                          : BT.2020
Transfer characteristics                 : PQ
Matrix coefficients                      : BT.2020 non-constant
Mastering display color primaries        : Display P3
Mastering display luminance              : min: 0.0050 cd/m2, max: 4000 cd/m2
Maximum Content Light Level              : 500 cd/m2
Maximum Frame-Average Light Level        : 200 cd/m2

Audio
ID                                       : 2
Format                                   : DTS XLL X
Format/Info                              : Digital Theater Systems
Commercial name                          : DTS-HD Master Audio
Codec ID                                 : A_DTS
Duration                                 : 2 h 33 min
Bit rate mode                            : Variable
Bit rate                                 : 3 689 kb/s
Channel(s)                               : 8 channels
Channel(s)_Original                      : Object Based
ChannelLayout_Original                   : Object Based
Sampling rate                            : 48.0 kHz
Frame rate                               : 93.750 FPS (512 SPF)
Bit depth                                : 24 bits
Stream size                              : 3.96 GiB (7%)
Title                                    : DTS:X 7.1
Language                                 : English
Default                                  : Yes
Forced                                   : No

Text #1
ID                                       : 3
Format                                   : PGS
Codec ID                                 : S_HDMV/PGS
Codec ID/Info                            : Picture based subtitle format used on BDs/HD-DVDs
Duration                                 : 2 h 33 min
Bit rate                                 : 28.1 kb/s
Count of elements                        : 3042
Stream size                              : 30.8 MiB (0%)
Title                                    : English (SDH)
Language                                 : English
Default                                  : No
Forced                                   : No

Text #2
ID                                       : 4
Format                                   : PGS
Codec ID                                 : S_HDMV/PGS
Codec ID/Info                            : Picture based subtitle format used on BDs/HD-DVDs
Duration                                 : 2 h 33 min
Bit rate                                 : 14.6 kb/s
Count of elements                        : 2894
Stream size                              : 16.0 MiB (0%)
Title                                    : Arabic
Language                                 : Arabic
Default                                  : No
Forced                                   : No

Text #3
ID                                       : 5
Format                                   : PGS
Codec ID                                 : S_HDMV/PGS
Codec ID/Info                            : Picture based subtitle format used on BDs/HD-DVDs
Duration                                 : 2 h 33 min
Bit rate                                 : 21.7 kb/s
Count of elements                        : 2894
Stream size                              : 23.7 MiB (0%)
Title                                    : Chinese (Cantonese)
Language                                 : Chinese
Default                                  : No
Forced                                   : No

Text #4
ID                                       : 6
Format                                   : PGS
Codec ID                                 : S_HDMV/PGS
Codec ID/Info                            : Picture based subtitle format used on BDs/HD-DVDs
Duration                                 : 2 h 33 min
Bit rate                                 : 22.4 kb/s
Count of elements                        : 2936
Stream size                              : 24.5 MiB (0%)
Title                                    : Chinese (Mandarin Traditional)
Language                                 : Chinese
Default                                  : No
Forced                                   : No

Text #5
ID                                       : 7
Format                                   : PGS
Codec ID                                 : S_HDMV/PGS
Codec ID/Info                            : Picture based subtitle format used on BDs/HD-DVDs
Duration                                 : 2 h 33 min
Bit rate                                 : 22.5 kb/s
Count of elements                        : 2868
Stream size                              : 24.7 MiB (0%)
Title                                    : Czech
Language                                 : Czech
Default                                  : No
Forced                                   : No

Text #6
ID                                       : 8
Format                                   : PGS
Codec ID                                 : S_HDMV/PGS
Codec ID/Info                            : Picture based subtitle format used on BDs/HD-DVDs
Duration                                 : 2 h 33 min
Bit rate                                 : 22.6 kb/s
Count of elements                        : 2110
Stream size                              : 24.8 MiB (0%)
Title                                    : Danish
Language                                 : Danish
Default                                  : No
Forced                                   : No

Text #7
ID                                       : 9
Format                                   : PGS
Codec ID                                 : S_HDMV/PGS
Codec ID/Info                            : Picture based subtitle format used on BDs/HD-DVDs
Duration                                 : 2 h 33 min
Bit rate                                 : 21.4 kb/s
Count of elements                        : 2250
Stream size                              : 23.5 MiB (0%)
Title                                    : Dutch
Language                                 : Dutch
Default                                  : No
Forced                                   : No

Text #8
ID                                       : 10
Format                                   : PGS
Codec ID                                 : S_HDMV/PGS
Codec ID/Info                            : Picture based subtitle format used on BDs/HD-DVDs
Duration                                 : 2 h 33 min
Bit rate                                 : 21.5 kb/s
Count of elements                        : 2246
Stream size                              : 23.6 MiB (0%)
Title                                    : Finnish
Language                                 : Finnish
Default                                  : No
Forced                                   : No

Text #9
ID                                       : 11
Format                                   : PGS
Codec ID                                 : S_HDMV/PGS
Codec ID/Info                            : Picture based subtitle format used on BDs/HD-DVDs
Duration                                 : 2 h 33 min
Bit rate                                 : 27.5 kb/s
Count of elements                        : 2832
Stream size                              : 30.1 MiB (0%)
Title                                    : French
Language                                 : French
Default                                  : No
Forced                                   : No

Text #10
ID                                       : 12
Format                                   : PGS
Codec ID                                 : S_HDMV/PGS
Codec ID/Info                            : Picture based subtitle format used on BDs/HD-DVDs
Duration                                 : 2 h 33 min
Bit rate                                 : 33.1 kb/s
Count of elements                        : 3228
Stream size                              : 36.3 MiB (0%)
Title                                    : German (SDH)
Language                                 : German
Default                                  : No
Forced                                   : No

Text #11
ID                                       : 13
Format                                   : PGS
Codec ID                                 : S_HDMV/PGS
Codec ID/Info                            : Picture based subtitle format used on BDs/HD-DVDs
Duration                                 : 2 h 33 min
Bit rate                                 : 27.4 kb/s
Count of elements                        : 3092
Stream size                              : 30.0 MiB (0%)
Title                                    : Italian (SDH)
Language                                 : Italian
Default                                  : No
Forced                                   : No

Text #12
ID                                       : 14
Format                                   : PGS
Codec ID                                 : S_HDMV/PGS
Codec ID/Info                            : Picture based subtitle format used on BDs/HD-DVDs
Duration                                 : 2 h 32 min
Bit rate                                 : 19.4 kb/s
Count of elements                        : 3352
Stream size                              : 21.2 MiB (0%)
Title                                    : Japanese
Language                                 : Japanese
Default                                  : No
Forced                                   : No

Text #13
ID                                       : 15
Format                                   : PGS
Codec ID                                 : S_HDMV/PGS
Codec ID/Info                            : Picture based subtitle format used on BDs/HD-DVDs
Duration                                 : 2 h 33 min
Bit rate                                 : 15.6 kb/s
Count of elements                        : 2872
Stream size                              : 17.1 MiB (0%)
Title                                    : Korean
Language                                 : Korean
Default                                  : No
Forced                                   : No

Text #14
ID                                       : 16
Format                                   : PGS
Codec ID                                 : S_HDMV/PGS
Codec ID/Info                            : Picture based subtitle format used on BDs/HD-DVDs
Duration                                 : 2 h 33 min
Bit rate                                 : 23.5 kb/s
Count of elements                        : 2692
Stream size                              : 25.8 MiB (0%)
Title                                    : Norwegian
Language                                 : Norwegian
Default                                  : No
Forced                                   : No

Text #15
ID                                       : 17
Format                                   : PGS
Codec ID                                 : S_HDMV/PGS
Codec ID/Info                            : Picture based subtitle format used on BDs/HD-DVDs
Duration                                 : 2 h 33 min
Bit rate                                 : 24.7 kb/s
Count of elements                        : 2908
Stream size                              : 27.0 MiB (0%)
Title                                    : Polish
Language                                 : Polish
Default                                  : No
Forced                                   : No

Text #16
ID                                       : 18
Format                                   : PGS
Codec ID                                 : S_HDMV/PGS
Codec ID/Info                            : Picture based subtitle format used on BDs/HD-DVDs
Duration                                 : 2 h 33 min
Bit rate                                 : 26.0 kb/s
Count of elements                        : 2896
Stream size                              : 28.4 MiB (0%)
Title                                    : Portuguese (Brazilian)
Language                                 : Portuguese
Default                                  : No
Forced                                   : No

Text #17
ID                                       : 19
Format                                   : PGS
Codec ID                                 : S_HDMV/PGS
Codec ID/Info                            : Picture based subtitle format used on BDs/HD-DVDs
Duration                                 : 2 h 33 min
Bit rate                                 : 25.6 kb/s
Count of elements                        : 3132
Stream size                              : 28.0 MiB (0%)
Title                                    : Spanish (Castilian)
Language                                 : Spanish
Default                                  : No
Forced                                   : No

Text #18
ID                                       : 20
Format                                   : PGS
Codec ID                                 : S_HDMV/PGS
Codec ID/Info                            : Picture based subtitle format used on BDs/HD-DVDs
Duration                                 : 2 h 33 min
Bit rate                                 : 24.3 kb/s
Count of elements                        : 2900
Stream size                              : 26.6 MiB (0%)
Title                                    : Spanish
Language                                 : Spanish
Default                                  : No
Forced                                   : No

Text #19
ID                                       : 21
Format                                   : PGS
Codec ID                                 : S_HDMV/PGS
Codec ID/Info                            : Picture based subtitle format used on BDs/HD-DVDs
Duration                                 : 2 h 33 min
Bit rate                                 : 21.1 kb/s
Count of elements                        : 2130
Stream size                              : 23.1 MiB (0%)
Title                                    : Swedish
Language                                 : Swedish
Default                                  : No
Forced                                   : No

Menu
00:00:00.000                             : en:Who's Harry Potter?
00:05:28.453                             : en:Horace Slughorn
00:12:13.900                             : en:What Could Be Safer?
00:14:57.105                             : en:Snape's Visitors
00:18:43.164                             : en:Draco's Detour
00:22:30.474                             : en:That's For My Father
00:27:35.988                             : en:Dark Forces
00:32:04.589                             : en:The Half Blood Prince
00:37:48.183                             : en:The Secret Riddle
00:44:48.311                             : en:Hermione's Helping Hand
00:49:31.719                             : en:Cursed Necklace
00:54:55.334                             : en:Slug Club
01:00:00.263                             : en:Felix Felicis
01:03:09.619                             : en:How It Feels
01:05:57.120                             : en:Free Agents
01:09:13.649                             : en:The Unbreakable Vow
01:14:00.061                             : en:Death Eaters Attack
01:21:09.740                             : en:A Sluggish Memory
01:26:31.436                             : en:Perilous Potions
01:33:37.362                             : en:Sectumsempra
01:39:57.283                             : en:Hiding the Book
01:43:16.232                             : en:Liquid Luck
01:48:24.707                             : en:After Aragog's Burial
01:52:30.077                             : en:Horcruxes
01:56:53.632                             : en:The Cave
02:02:11.699                             : en:Inferi Attack
02:08:33.497                             : en:The Astronomy Tower
02:15:00.259                             : en:Flight of the Prince
02:19:08.006                             : en:R.a.B.
02:23:54.084                             : en:End Credits

General
Complete name                            : Harry.Potter.and.the.Deathly.Hallows.Part.1.2010.UHD.BluRay.2160p.DTS-X.7.1.HEVC.REMUX-FraMeSToR.mkv
Format                                   : Matroska
Format version                           : Version 4
File size                                : 52.0 GiB
Duration                                 : 2 h 26 min
Overall bit rate mode                    : Variable
Overall bit rate                         : 50.9 Mb/s
Encoded date                             : UTC 2017-12-31 16:16:09
Writing application                      : mkvmerge v19.0.0 ('Brave Captain') 64-bit
Writing library                          : libebml v1.3.5 + libmatroska v1.4.8

Video
ID                                       : 1
Format                                   : HEVC
Format/Info                              : High Efficiency Video Coding
Format profile                           : Main 10@L5.1@High
HDR format                               : SMPTE ST 2086, HDR10 compatible
Codec ID                                 : V_MPEGH/ISO/HEVC
Duration                                 : 2 h 26 min
Bit rate                                 : 47.2 Mb/s
Width                                    : 3 840 pixels
Height                                   : 2 160 pixels
Display aspect ratio                     : 16:9
Frame rate mode                          : Constant
Frame rate                               : 23.976 (24000/1001) FPS
Color space                              : YUV
Chroma subsampling                       : 4:2:0 (Type 2)
Bit depth                                : 10 bits
Bits/(Pixel*Frame)                       : 0.237
Stream size                              : 48.1 GiB (93%)
Default                                  : Yes
Forced                                   : No
Color range                              : Limited
Color primaries                          : BT.2020
Transfer characteristics                 : PQ
Matrix coefficients                      : BT.2020 non-constant
Mastering display color primaries        : Display P3
Mastering display luminance              : min: 0.0050 cd/m2, max: 4000 cd/m2
Maximum Content Light Level              : 2632 cd/m2
Maximum Frame-Average Light Level        : 431 cd/m2

Audio
ID                                       : 2
Format                                   : DTS XLL X
Format/Info                              : Digital Theater Systems
Commercial name                          : DTS-HD Master Audio
Codec ID                                 : A_DTS
Duration                                 : 2 h 26 min
Bit rate mode                            : Variable
Bit rate                                 : 3 683 kb/s
Channel(s)                               : 8 channels
Channel(s)_Original                      : Object Based
ChannelLayout_Original                   : Object Based
Sampling rate                            : 48.0 kHz
Frame rate                               : 93.750 FPS (512 SPF)
Bit depth                                : 24 bits
Stream size                              : 3.76 GiB (7%)
Title                                    : DTS:X 7.1
Language                                 : English
Default                                  : Yes
Forced                                   : No

Text #1
ID                                       : 3
Format                                   : PGS
Codec ID                                 : S_HDMV/PGS
Codec ID/Info                            : Picture based subtitle format used on BDs/HD-DVDs
Duration                                 : 2 h 25 min
Bit rate                                 : 27.0 kb/s
Count of elements                        : 2892
Stream size                              : 28.1 MiB (0%)
Title                                    : English (SDH)
Language                                 : English
Default                                  : No
Forced                                   : No

Text #2
ID                                       : 4
Format                                   : PGS
Codec ID                                 : S_HDMV/PGS
Codec ID/Info                            : Picture based subtitle format used on BDs/HD-DVDs
Duration                                 : 2 h 25 min
Bit rate                                 : 21.4 kb/s
Count of elements                        : 2492
Stream size                              : 22.3 MiB (0%)
Title                                    : Spanish (Latin American)
Language                                 : Spanish
Default                                  : No
Forced                                   : No

Menu
00:00:00.000                             : en:Dark Times
00:04:18.467                             : en:Dark Lord Ascending
00:09:46.586                             : en:The Seven Potters
00:15:16.165                             : en:Aerial Ambush
00:19:13.527                             : en:Fallen Warrior
00:26:04.188                             : en:Dumbledore's Will
00:31:37.729                             : en:The Wedding
00:35:43.266                             : en:A Place to Hide
00:41:37.495                             : en:Kreacher's Tale
00:45:45.576                             : en:Theft of a Thief
00:50:14.053                             : en:Ministry Interior
00:55:02.674                             : en:Secret Files
00:58:31.133                             : en:Lifting the Locket
01:03:41.317                             : en:Forest Fugitives
01:10:02.156                             : en:Getting Too Close
01:14:30.883                             : en:Broken Ranks
01:18:48.807                             : en:Invitation to Dance
01:22:17.558                             : en:Clues Revealed
01:24:55.048                             : en:Godric's Hollow
01:28:03.153                             : en:Bathilda's Secret
01:32:34.132                             : en:The Silver Doe
01:37:40.188                             : en:Sword of Gryffindor
01:42:37.526                             : en:Lighting the Way Back
01:47:54.093                             : en:The Three Brothers
01:53:48.071                             : en:The Deathly Hallows
01:57:30.919                             : en:Snatchers Strike
02:01:27.947                             : en:Malfoy Manor
02:05:42.118                             : en:Dobby has No Master
02:09:42.692                             : en:Sleeping Friend
02:13:15.988                             : en:Grave Robber

General
Complete name                            : Harry.Potter.and.the.Deathly.Hallows.Part.2.2011.UHD.BluRay.2160p.DTS-X.7.1.HEVC.REMUX-FraMeSToR.mkv
Format                                   : Matroska
Format version                           : Version 4
File size                                : 46.2 GiB
Duration                                 : 2 h 10 min
Overall bit rate mode                    : Variable
Overall bit rate                         : 50.7 Mb/s
Encoded date                             : UTC 2017-12-31 18:08:32
Writing application                      : mkvmerge v19.0.0 ('Brave Captain') 64-bit
Writing library                          : libebml v1.3.5 + libmatroska v1.4.8

Video
ID                                       : 1
Format                                   : HEVC
Format/Info                              : High Efficiency Video Coding
Format profile                           : Main 10@L5.1@High
HDR format                               : SMPTE ST 2086, HDR10 compatible
Codec ID                                 : V_MPEGH/ISO/HEVC
Duration                                 : 2 h 10 min
Bit rate                                 : 46.7 Mb/s
Width                                    : 3 840 pixels
Height                                   : 2 160 pixels
Display aspect ratio                     : 16:9
Frame rate mode                          : Constant
Frame rate                               : 23.976 (24000/1001) FPS
Color space                              : YUV
Chroma subsampling                       : 4:2:0 (Type 2)
Bit depth                                : 10 bits
Bits/(Pixel*Frame)                       : 0.235
Stream size                              : 42.5 GiB (92%)
Default                                  : Yes
Forced                                   : No
Color range                              : Limited
Color primaries                          : BT.2020
Transfer characteristics                 : PQ
Matrix coefficients                      : BT.2020 non-constant
Mastering display color primaries        : Display P3
Mastering display luminance              : min: 0.0050 cd/m2, max: 4000 cd/m2
Maximum Content Light Level              : 500 cd/m2
Maximum Frame-Average Light Level        : 200 cd/m2

Audio
ID                                       : 2
Format                                   : DTS XLL X
Format/Info                              : Digital Theater Systems
Commercial name                          : DTS-HD Master Audio
Codec ID                                 : A_DTS
Duration                                 : 2 h 10 min
Bit rate mode                            : Variable
Bit rate                                 : 3 787 kb/s
Channel(s)                               : 8 channels
Channel(s)_Original                      : Object Based
ChannelLayout_Original                   : Object Based
Sampling rate                            : 48.0 kHz
Frame rate                               : 93.750 FPS (512 SPF)
Bit depth                                : 24 bits
Stream size                              : 3.45 GiB (7%)
Title                                    : DTS:X 7.1
Language                                 : English
Default                                  : Yes
Forced                                   : No

Text #1
ID                                       : 3
Format                                   : PGS
Codec ID                                 : S_HDMV/PGS
Codec ID/Info                            : Picture based subtitle format used on BDs/HD-DVDs
Duration                                 : 2 h 9 min
Bit rate                                 : 19.8 kb/s
Count of elements                        : 2058
Stream size                              : 18.3 MiB (0%)
Title                                    : English (SDH)
Language                                 : English
Default                                  : No
Forced                                   : No

Text #2
ID                                       : 4
Format                                   : PGS
Codec ID                                 : S_HDMV/PGS
Codec ID/Info                            : Picture based subtitle format used on BDs/HD-DVDs
Duration                                 : 2 h 8 min
Bit rate                                 : 9 680 b/s
Count of elements                        : 2034
Stream size                              : 8.92 MiB (0%)
Title                                    : Arabic
Language                                 : Arabic
Default                                  : No
Forced                                   : No

Text #3
ID                                       : 5
Format                                   : PGS
Codec ID                                 : S_HDMV/PGS
Codec ID/Info                            : Picture based subtitle format used on BDs/HD-DVDs
Duration                                 : 2 h 8 min
Bit rate                                 : 15.5 kb/s
Count of elements                        : 2002
Stream size                              : 14.3 MiB (0%)
Title                                    : Chinese (Traditional)
Language                                 : Chinese
Default                                  : No
Forced                                   : No

Text #4
ID                                       : 6
Format                                   : PGS
Codec ID                                 : S_HDMV/PGS
Codec ID/Info                            : Picture based subtitle format used on BDs/HD-DVDs
Duration                                 : 2 h 8 min
Bit rate                                 : 15.1 kb/s
Count of elements                        : 1882
Stream size                              : 13.9 MiB (0%)
Title                                    : Chinese (Cantonese)
Language                                 : Chinese
Default                                  : No
Forced                                   : No

Text #5
ID                                       : 7
Format                                   : PGS
Codec ID                                 : S_HDMV/PGS
Codec ID/Info                            : Picture based subtitle format used on BDs/HD-DVDs
Duration                                 : 2 h 8 min
Bit rate                                 : 16.2 kb/s
Count of elements                        : 1478
Stream size                              : 14.9 MiB (0%)
Title                                    : Danish
Language                                 : Danish
Default                                  : No
Forced                                   : No

Text #6
ID                                       : 8
Format                                   : PGS
Codec ID                                 : S_HDMV/PGS
Codec ID/Info                            : Picture based subtitle format used on BDs/HD-DVDs
Duration                                 : 2 h 8 min
Bit rate                                 : 15.4 kb/s
Count of elements                        : 1676
Stream size                              : 14.1 MiB (0%)
Title                                    : Finnish
Language                                 : Finnish
Default                                  : No
Forced                                   : No

Text #7
ID                                       : 9
Format                                   : PGS
Codec ID                                 : S_HDMV/PGS
Codec ID/Info                            : Picture based subtitle format used on BDs/HD-DVDs
Duration                                 : 2 h 8 min
Bit rate                                 : 15.4 kb/s
Count of elements                        : 1934
Stream size                              : 14.2 MiB (0%)
Title                                    : French
Language                                 : French
Default                                  : No
Forced                                   : No

Text #8
ID                                       : 10
Format                                   : PGS
Codec ID                                 : S_HDMV/PGS
Codec ID/Info                            : Picture based subtitle format used on BDs/HD-DVDs
Duration                                 : 2 h 9 min
Bit rate                                 : 19.7 kb/s
Count of elements                        : 2082
Stream size                              : 18.2 MiB (0%)
Title                                    : Italian (SDH)
Language                                 : Italian
Default                                  : No
Forced                                   : No

Text #9
ID                                       : 11
Format                                   : PGS
Codec ID                                 : S_HDMV/PGS
Codec ID/Info                            : Picture based subtitle format used on BDs/HD-DVDs
Duration                                 : 1 h 55 min
Bit rate                                 : 15.2 kb/s
Count of elements                        : 1967
Stream size                              : 12.6 MiB (0%)
Title                                    : Japanese
Language                                 : Japanese
Default                                  : No
Forced                                   : No

Text #10
ID                                       : 12
Format                                   : PGS
Codec ID                                 : S_HDMV/PGS
Codec ID/Info                            : Picture based subtitle format used on BDs/HD-DVDs
Duration                                 : 2 h 8 min
Bit rate                                 : 12.3 kb/s
Count of elements                        : 1848
Stream size                              : 11.3 MiB (0%)
Title                                    : Korean
Language                                 : Korean
Default                                  : No
Forced                                   : No

Text #11
ID                                       : 13
Format                                   : PGS
Codec ID                                 : S_HDMV/PGS
Codec ID/Info                            : Picture based subtitle format used on BDs/HD-DVDs
Duration                                 : 2 h 8 min
Bit rate                                 : 15.7 kb/s
Count of elements                        : 1680
Stream size                              : 14.5 MiB (0%)
Title                                    : Norwegian
Language                                 : Norwegian
Default                                  : No
Forced                                   : No

Text #12
ID                                       : 14
Format                                   : PGS
Codec ID                                 : S_HDMV/PGS
Codec ID/Info                            : Picture based subtitle format used on BDs/HD-DVDs
Duration                                 : 2 h 8 min
Bit rate                                 : 17.6 kb/s
Count of elements                        : 1856
Stream size                              : 16.2 MiB (0%)
Title                                    : Portuguese (Brazilian)
Language                                 : Portuguese
Default                                  : No
Forced                                   : No

Text #13
ID                                       : 15
Format                                   : PGS
Codec ID                                 : S_HDMV/PGS
Codec ID/Info                            : Picture based subtitle format used on BDs/HD-DVDs
Duration                                 : 2 h 8 min
Bit rate                                 : 17.0 kb/s
Count of elements                        : 1846
Stream size                              : 15.7 MiB (0%)
Title                                    : Spanish (Latin American)
Language                                 : Spanish
Default                                  : No
Forced                                   : No

Text #14
ID                                       : 16
Format                                   : PGS
Codec ID                                 : S_HDMV/PGS
Codec ID/Info                            : Picture based subtitle format used on BDs/HD-DVDs
Duration                                 : 2 h 8 min
Bit rate                                 : 16.8 kb/s
Count of elements                        : 1592
Stream size                              : 15.5 MiB (0%)
Title                                    : Swedish
Language                                 : Swedish
Default                                  : No
Forced                                   : No

Menu
00:00:00.000                             : en:Shell Cottage
00:02:58.178                             : en:Griphook's Price
00:06:21.131                             : en:He's After You
00:10:21.830                             : en:Gringotts
00:14:27.950                             : en:Copping the Cup
00:20:05.579                             : en:Exit the Dragon
00:22:47.741                             : en:Final Hiding Place
00:25:38.579                             : en:Aberforth Dumbledore
00:30:46.762                             : en:Hogwarts Reunion
00:34:33.613                             : en:Give Me Harry Potter
00:40:32.221                             : en:Duty To Our School
00:45:52.208                             : en:You Need Only Ask
00:50:15.429                             : en:Blow For Blow
00:54:40.986                             : en:Finding the Diadem
00:59:01.204                             : en:Fiendfyre
01:03:42.027                             : en:He Will Come To Me
01:07:06.022                             : en:Your Mother's Eyes
01:11:24.447                             : en:Confront Your Fate
01:14:38.891                             : en:Visions of a Life
01:23:40.807                             : en:I Open At the Close
01:29:17.686                             : en:The Boy Who Lived
01:31:24.979                             : en:King's Cross
01:36:37.625                             : en:Declare Yourself
01:41:09.063                             : en:Not Over
01:46:42.271                             : en:The Wand's Choice
01:50:18.320                             : en:The Wizard's Choice
01:54:16.641                             : en:Nineteen Years Later
01:58:12.836                             : en:End Credits

Readme/Password

Password & My Message