Fast Download Mirrors

Cyrano (2021) • Movie | 1080p.WEB.DDP5.1.H264-SLOT [6.5GB]

Cyrano (2021) • Movie
Cyrano Drama, Musical, Romance | February 25, 2022 (United States) Summary: Too self-conscious to woo Roxanne himself, wordsmith Cyrano de Bergerac helps young Christian nab her heart through love letters.
Countries: United Kingdom, United States, CanadaLanguages: English

A man ahead of his time, Cyrano de Bergerac dazzles whether with ferocious wordplay at a verbal joust or with brilliant swordplay in a duel. But, convinced that his appearance renders him unworthy of the love of a devoted friend, the luminous Roxanne, Cyrano has yet to declare his feelings for her—and Roxanne has fallen in love, at first sight, with Christian.

Mirrors: 1fichier, Uptobox, Gdrive [Sharer]
Format: MKV
Credits: SLOT

Download

Video
ID : 1
Format : AVC
Format/Info : Advanced Video Codec
Format profile : High@L4
Format settings : CABAC / 5 Ref Frames
Format settings, CABAC : Yes
Format settings, Reference frames : 5 frames
Codec ID : V_MPEG4/ISO/AVC
Duration : 2 h 3 min
Bit rate : 6 776 kb/s
Width : 1 920 pixels
Height : 802 pixels
Display aspect ratio : 2.40:1
Frame rate mode : Variable
Frame rate : 24.000 FPS
Color space : YUV
Chroma subsampling : 4:2:0
Bit depth : 8 bits
Scan type : Progressive
Bits/(Pixel*Frame) : 0.183
Stream size : 5.83 GiB (90%)
Default : Yes
Forced : No
Color range : Limited
Color primaries : BT.709
Transfer characteristics : BT.709
Matrix coefficients : BT.709

Audio
ID : 2
Format : E-AC-3 JOC
Format/Info : Enhanced AC-3 with Joint Object Coding
Commercial name : Dolby Digital Plus with Dolby Atmos
Codec ID : A_EAC3
Duration : 2 h 3 min
Bit rate mode : Constant
Bit rate : 768 kb/s
Channel(s) : 6 channels
Channel layout : L R C LFE Ls Rs
Sampling rate : 48.0 kHz
Frame rate : 31.250 FPS (1536 SPF)
Compression mode : Lossy
Stream size : 677 MiB (10%)
Language : English
Service kind : Complete Main
Default : Yes
Forced : No
Complexity index : 16
Number of dynamic objects : 15
Bed channel count : 1 channel
Bed channel configuration : LFE

Text #1
ID : 3
Format : UTF-8
Codec ID : S_TEXT/UTF8
Codec ID/Info : UTF-8 Plain Text
Duration : 2 h 1 min
Bit rate : 60 b/s
Count of elements : 1855
Stream size : 53.7 KiB (0%)
Title : Spanish Latin American
Language : Spanish
Default : No
Forced : No

Text #2
ID : 4
Format : UTF-8
Codec ID : S_TEXT/UTF8
Codec ID/Info : UTF-8 Plain Text
Duration : 2 h 1 min
Bit rate : 63 b/s
Count of elements : 1865
Stream size : 56.9 KiB (0%)
Title : French Canadian
Language : French
Default : No
Forced : No

Menu
00:00:00.000 : en:Chapter 01
00:08:05.200 : en:Chapter 02
00:19:01.200 : en:Chapter 03
00:27:08.800 : en:Chapter 04
00:37:32.350 : en:Chapter 05
00:47:38.230 : en:Chapter 06
01:03:06.700 : en:Chapter 07
01:15:32.000 : en:Chapter 08
01:26:31.000 : en:Chapter 09
01:40:25.000 : en:Chapter 10
01:55:39.450 : en:Chapter 11

Readme/Password

Password & My Message