Fast Download Mirrors

Harriet the Spy (2021-) • TVSeries | S01.Part1.2160p.ATVP.WEB-DL.DDP5.1.Atmos.x265-NOSiViD [18GB]

Harriet the Spy (2021-)
Harriet the Spy Animation, Family | November 19, 2021 (United States) Summary: A curious 11-year-old who seeks to learn everything about anything in order to pursue her dreams of becoming a professional writer.
Countries: United StatesLanguages: English

Outspoken and perpetually curious. That’s 11-year-old Harriet in a nutshell. But if she’s going to be Harriet M. Welsch, future writer, she’ll need to know everything. And to know everything means she’ll need to spy…on everyone.

Mirrors: MirrorAce, MultiUp, Gdrive[GDTOT, Sharer]
Format: MKV
Credits: NOSiViD
Seasons-1(Part-1) Complete

Download

https://multiup.org/bb993104fa99e3b8319607ad449c1360
https://multiup.org/090bbd1f83602074513f5a4f68c7d677
https://multiup.org/99f99267e23bd5a256c7589894a851a6
https://multiup.org/c2c81bd316ca5d411fc0cb43a6d33e92
https://multiup.org/a7f129bb38ae53a34e1a38e705463ff2

https://mirrorace.org/m/3LOxQ
https://mirrorace.org/m/57Jsz
https://mirrorace.org/m/57JsD
https://mirrorace.org/m/3LOy2
https://mirrorace.org/m/3LOy6


Harriet.The.Spy.S01E01.2160p.ATVP.WEB-DL.DDPA5.1.HDR.HEVC-NOSiViD.mkv - 3.9 GB
https://new.gdtot.top/file/4191075450

Harriet.The.Spy.S01E05.2160p.ATVP.WEB-DL.DDPA5.1.HDR.HEVC-NOSiViD.mkv - 3.97 GB
https://new.gdtot.top/file/4266158316

Harriet.The.Spy.S01E02.2160p.ATVP.WEB-DL.DDPA5.1.HDR.HEVC-NOSiViD.mkv - 3.94 GB
https://new.gdtot.top/file/4230162822

Harriet.The.Spy.S01E04.2160p.ATVP.WEB-DL.DDPA5.1.HDR.HEVC-NOSiViD.mkv - 4.2 GB
https://new.gdtot.top/file/4504525095

Harriet.The.Spy.S01E03.2160p.ATVP.WEB-DL.DDPA5.1.HDR.HEVC-NOSiViD.mkv - 3.87 GB
https://new.gdtot.top/file/4153898427


Harriet.The.Spy.S01E01.2160p.ATVP.WEB-DL.DDPA5.1.HDR.HEVC-NOSiViD.mkv
https://sharer.pw/file/CoxxJ1tNgIrj

Harriet.The.Spy.S01E05.2160p.ATVP.WEB-DL.DDPA5.1.HDR.HEVC-NOSiViD.mkv
https://sharer.pw/file/VH4fanfFpJLu

Harriet.The.Spy.S01E02.2160p.ATVP.WEB-DL.DDPA5.1.HDR.HEVC-NOSiViD.mkv
https://sharer.pw/file/0JGesLeIWlYO

Harriet.The.Spy.S01E04.2160p.ATVP.WEB-DL.DDPA5.1.HDR.HEVC-NOSiViD.mkv
https://sharer.pw/file/rb5KaFA650Ey

Harriet.The.Spy.S01E03.2160p.ATVP.WEB-DL.DDPA5.1.HDR.HEVC-NOSiViD.mkv
https://sharer.pw/file/ASl1P_miCuVX
Video
ID : 1
Format : HEVC
Format/Info : High Efficiency Video Coding
Format profile : Main 10@L5@High
Codec ID : V_MPEGH/ISO/HEVC
Duration : 24 min 14 s
Bit rate : 20.8 Mb/s
Width : 3 840 pixels
Height : 2 160 pixels
Display aspect ratio : 16:9
Frame rate mode : Constant
Frame rate : 23.976 (23976/1000) FPS
Color space : YUV
Chroma subsampling : 4:2:0
Bit depth : 10 bits
Bits/(Pixel*Frame) : 0.104
Stream size : 3.52 GiB (96%)
Default : Yes
Forced : No
Color range : Limited
Color primaries : BT.709
Transfer characteristics : BT.709
Matrix coefficients : BT.709

Audio
ID : 2
Format : E-AC-3 JOC
Format/Info : Enhanced AC-3 with Joint Object Coding
Commercial name : Dolby Digital Plus with Dolby Atmos
Codec ID : A_EAC3
Duration : 24 min 14 s
Bit rate mode : Constant
Bit rate : 768 kb/s
Channel(s) : 6 channels
Channel layout : L R C LFE Ls Rs
Sampling rate : 48.0 kHz
Frame rate : 31.250 FPS (1536 SPF)
Compression mode : Lossy
Stream size : 133 MiB (4%)
Language : English
Service kind : Complete Main
Default : Yes
Forced : No
Complexity index : 16
Number of dynamic objects : 15
Bed channel count : 1 channel
Bed channel configuration : LFE

Text #1
ID : 3
Format : UTF-8
Codec ID : S_TEXT/UTF8
Codec ID/Info : UTF-8 Plain Text
Duration : 24 min 2 s
Bit rate : 69 b/s
Count of elements : 342
Stream size : 12.3 KiB (0%)
Language : English
Default : No
Forced : No

Text #2
ID : 4
Format : UTF-8
Codec ID : S_TEXT/UTF8
Codec ID/Info : UTF-8 Plain Text
Duration : 24 min 2 s
Bit rate : 78 b/s
Count of elements : 381
Stream size : 13.9 KiB (0%)
Title : SDH
Language : English
Default : No
Forced : No

Text #3
ID : 5
Format : UTF-8
Codec ID : S_TEXT/UTF8
Codec ID/Info : UTF-8 Plain Text
Duration : 24 min 5 s
Bit rate : 104 b/s
Count of elements : 348
Stream size : 18.4 KiB (0%)
Language : Arabic
Default : No
Forced : No

Text #4
ID : 6
Format : UTF-8
Codec ID : S_TEXT/UTF8
Codec ID/Info : UTF-8 Plain Text
Duration : 24 min 5 s
Bit rate : 103 b/s
Count of elements : 337
Stream size : 18.2 KiB (0%)
Language : Bulgarian
Default : No
Forced : No

Text #5
ID : 7
Format : UTF-8
Codec ID : S_TEXT/UTF8
Codec ID/Info : UTF-8 Plain Text
Duration : 24 min 5 s
Bit rate : 64 b/s
Count of elements : 347
Stream size : 11.4 KiB (0%)
Title : Simplified
Language : Chinese
Default : No
Forced : No

Text #6
ID : 8
Format : UTF-8
Codec ID : S_TEXT/UTF8
Codec ID/Info : UTF-8 Plain Text
Duration : 24 min 5 s
Bit rate : 67 b/s
Count of elements : 348
Stream size : 11.8 KiB (0%)
Title : Traditional
Language : Chinese
Default : No
Forced : No

Text #7
ID : 9
Format : UTF-8
Codec ID : S_TEXT/UTF8
Codec ID/Info : UTF-8 Plain Text
Duration : 24 min 5 s
Bit rate : 66 b/s
Count of elements : 333
Stream size : 11.8 KiB (0%)
Language : Czech
Default : No
Forced : No

Text #8
ID : 10
Format : UTF-8
Codec ID : S_TEXT/UTF8
Codec ID/Info : UTF-8 Plain Text
Duration : 24 min 5 s
Bit rate : 67 b/s
Count of elements : 318
Stream size : 11.9 KiB (0%)
Language : Danish
Default : No
Forced : No

Text #9
ID : 11
Format : UTF-8
Codec ID : S_TEXT/UTF8
Codec ID/Info : UTF-8 Plain Text
Duration : 23 min 57 s
Bit rate : 81 b/s
Count of elements : 352
Stream size : 14.4 KiB (0%)
Language : German
Default : No
Forced : No

Text #10
ID : 12
Format : UTF-8
Codec ID : S_TEXT/UTF8
Codec ID/Info : UTF-8 Plain Text
Duration : 24 min 5 s
Bit rate : 126 b/s
Count of elements : 347
Stream size : 22.4 KiB (0%)
Language : Greek
Default : No
Forced : No

Text #11
ID : 13
Format : UTF-8
Codec ID : S_TEXT/UTF8
Codec ID/Info : UTF-8 Plain Text
Duration : 24 min 5 s
Bit rate : 73 b/s
Count of elements : 357
Stream size : 13.0 KiB (0%)
Title : Latin American
Language : Spanish
Default : No
Forced : No

Text #12
ID : 14
Format : UTF-8
Codec ID : S_TEXT/UTF8
Codec ID/Info : UTF-8 Plain Text
Duration : 24 min 4 s
Bit rate : 76 b/s
Count of elements : 355
Stream size : 13.5 KiB (0%)
Language : Spanish
Default : No
Forced : No

Text #13
ID : 15
Format : UTF-8
Codec ID : S_TEXT/UTF8
Codec ID/Info : UTF-8 Plain Text
Duration : 24 min 5 s
Bit rate : 70 b/s
Count of elements : 341
Stream size : 12.4 KiB (0%)
Language : Estonian
Default : No
Forced : No

Text #14
ID : 16
Format : UTF-8
Codec ID : S_TEXT/UTF8
Codec ID/Info : UTF-8 Plain Text
Duration : 24 min 5 s
Bit rate : 66 b/s
Count of elements : 347
Stream size : 11.8 KiB (0%)
Language : Finnish
Default : No
Forced : No

Text #15
ID : 17
Format : UTF-8
Codec ID : S_TEXT/UTF8
Codec ID/Info : UTF-8 Plain Text
Duration : 24 min 0 s
Bit rate : 65 b/s
Count of elements : 365
Stream size : 11.5 KiB (0%)
Title : Canadian
Language : French
Default : No
Forced : No

Text #16
ID : 18
Format : UTF-8
Codec ID : S_TEXT/UTF8
Codec ID/Info : UTF-8 Plain Text
Duration : 24 min 0 s
Bit rate : 65 b/s
Count of elements : 365
Stream size : 11.5 KiB (0%)
Language : French
Default : No
Forced : No

Text #17
ID : 19
Format : UTF-8
Codec ID : S_TEXT/UTF8
Codec ID/Info : UTF-8 Plain Text
Duration : 24 min 5 s
Bit rate : 100 b/s
Count of elements : 348
Stream size : 17.8 KiB (0%)
Language : Hebrew
Default : No
Forced : No

Text #18
ID : 20
Format : UTF-8
Codec ID : S_TEXT/UTF8
Codec ID/Info : UTF-8 Plain Text
Duration : 24 min 5 s
Bit rate : 196 b/s
Count of elements : 348
Stream size : 34.7 KiB (0%)
Language : Hindi
Default : No
Forced : No

Text #19
ID : 21
Format : UTF-8
Codec ID : S_TEXT/UTF8
Codec ID/Info : UTF-8 Plain Text
Duration : 24 min 5 s
Bit rate : 64 b/s
Count of elements : 344
Stream size : 11.4 KiB (0%)
Language : Hungarian
Default : No
Forced : No

Text #20
ID : 22
Format : UTF-8
Codec ID : S_TEXT/UTF8
Codec ID/Info : UTF-8 Plain Text
Duration : 24 min 5 s
Bit rate : 66 b/s
Count of elements : 347
Stream size : 11.7 KiB (0%)
Language : Indonesian
Default : No
Forced : No

Text #21
ID : 23
Format : UTF-8
Codec ID : S_TEXT/UTF8
Codec ID/Info : UTF-8 Plain Text
Duration : 24 min 4 s
Bit rate : 77 b/s
Count of elements : 348
Stream size : 13.7 KiB (0%)
Language : Italian
Default : No
Forced : No

Text #22
ID : 24
Format : UTF-8
Codec ID : S_TEXT/UTF8
Codec ID/Info : UTF-8 Plain Text
Duration : 24 min 4 s
Bit rate : 68 b/s
Count of elements : 359
Stream size : 12.1 KiB (0%)
Language : Japanese
Default : No
Forced : No

Text #23
ID : 25
Format : UTF-8
Codec ID : S_TEXT/UTF8
Codec ID/Info : UTF-8 Plain Text
Duration : 24 min 5 s
Bit rate : 79 b/s
Count of elements : 348
Stream size : 14.0 KiB (0%)
Language : Korean
Default : No
Forced : No

Text #24
ID : 26
Format : UTF-8
Codec ID : S_TEXT/UTF8
Codec ID/Info : UTF-8 Plain Text
Duration : 24 min 5 s
Bit rate : 65 b/s
Count of elements : 344
Stream size : 11.6 KiB (0%)
Language : Lithuanian
Default : No
Forced : No

Text #25
ID : 27
Format : UTF-8
Codec ID : S_TEXT/UTF8
Codec ID/Info : UTF-8 Plain Text
Duration : 24 min 5 s
Bit rate : 75 b/s
Count of elements : 343
Stream size : 13.3 KiB (0%)
Language : Latvian
Default : No
Forced : No

Text #26
ID : 28
Format : UTF-8
Codec ID : S_TEXT/UTF8
Codec ID/Info : UTF-8 Plain Text
Duration : 24 min 5 s
Bit rate : 68 b/s
Count of elements : 347
Stream size : 12.0 KiB (0%)
Language : Malay
Default : No
Forced : No

Text #27
ID : 29
Format : UTF-8
Codec ID : S_TEXT/UTF8
Codec ID/Info : UTF-8 Plain Text
Duration : 24 min 5 s
Bit rate : 70 b/s
Count of elements : 320
Stream size : 12.5 KiB (0%)
Language : Dutch
Default : No
Forced : No

Text #28
ID : 30
Format : UTF-8
Codec ID : S_TEXT/UTF8
Codec ID/Info : UTF-8 Plain Text
Duration : 24 min 5 s
Bit rate : 63 b/s
Count of elements : 298
Stream size : 11.2 KiB (0%)
Language : Norwegian
Default : No
Forced : No

Text #29
ID : 31
Format : UTF-8
Codec ID : S_TEXT/UTF8
Codec ID/Info : UTF-8 Plain Text
Duration : 24 min 5 s
Bit rate : 60 b/s
Count of elements : 330
Stream size : 10.7 KiB (0%)
Language : Polish
Default : No
Forced : No

Text #30
ID : 32
Format : UTF-8
Codec ID : S_TEXT/UTF8
Codec ID/Info : UTF-8 Plain Text
Duration : 24 min 5 s
Bit rate : 71 b/s
Count of elements : 346
Stream size : 12.7 KiB (0%)
Title : Brazilian
Language : Portuguese
Default : No
Forced : No

Text #31
ID : 33
Format : UTF-8
Codec ID : S_TEXT/UTF8
Codec ID/Info : UTF-8 Plain Text
Duration : 24 min 5 s
Bit rate : 72 b/s
Count of elements : 346
Stream size : 12.8 KiB (0%)
Language : Portuguese
Default : No
Forced : No

Text #32
ID : 34
Format : UTF-8
Codec ID : S_TEXT/UTF8
Codec ID/Info : UTF-8 Plain Text
Duration : 24 min 5 s
Bit rate : 120 b/s
Count of elements : 368
Stream size : 21.3 KiB (0%)
Language : Russian
Default : No
Forced : No

Text #33
ID : 35
Format : UTF-8
Codec ID : S_TEXT/UTF8
Codec ID/Info : UTF-8 Plain Text
Duration : 24 min 5 s
Bit rate : 69 b/s
Count of elements : 346
Stream size : 12.3 KiB (0%)
Language : Slovak
Default : No
Forced : No

Text #34
ID : 36
Format : UTF-8
Codec ID : S_TEXT/UTF8
Codec ID/Info : UTF-8 Plain Text
Duration : 24 min 5 s
Bit rate : 60 b/s
Count of elements : 319
Stream size : 10.7 KiB (0%)
Language : Slovenian
Default : No
Forced : No

Text #35
ID : 37
Format : UTF-8
Codec ID : S_TEXT/UTF8
Codec ID/Info : UTF-8 Plain Text
Duration : 24 min 5 s
Bit rate : 63 b/s
Count of elements : 332
Stream size : 11.1 KiB (0%)
Language : Swedish
Default : No
Forced : No

Text #36
ID : 38
Format : UTF-8
Codec ID : S_TEXT/UTF8
Codec ID/Info : UTF-8 Plain Text
Duration : 24 min 5 s
Bit rate : 227 b/s
Count of elements : 346
Stream size : 40.2 KiB (0%)
Language : Tamil
Default : No
Forced : No

Text #37
ID : 39
Format : UTF-8
Codec ID : S_TEXT/UTF8
Codec ID/Info : UTF-8 Plain Text
Duration : 24 min 5 s
Bit rate : 202 b/s
Count of elements : 347
Stream size : 35.8 KiB (0%)
Language : Telugu
Default : No
Forced : No

Text #38
ID : 40
Format : UTF-8
Codec ID : S_TEXT/UTF8
Codec ID/Info : UTF-8 Plain Text
Duration : 24 min 5 s
Bit rate : 154 b/s
Count of elements : 347
Stream size : 27.2 KiB (0%)
Language : Thai
Default : No
Forced : No

Text #39
ID : 41
Format : UTF-8
Codec ID : S_TEXT/UTF8
Codec ID/Info : UTF-8 Plain Text
Duration : 24 min 5 s
Bit rate : 74 b/s
Count of elements : 347
Stream size : 13.1 KiB (0%)
Language : Turkish
Default : No
Forced : No

Text #40
ID : 42
Format : UTF-8
Codec ID : S_TEXT/UTF8
Codec ID/Info : UTF-8 Plain Text
Duration : 24 min 5 s
Bit rate : 109 b/s
Count of elements : 347
Stream size : 19.4 KiB (0%)
Language : Ukrainian
Default : No
Forced : No

Text #41
ID : 43
Format : UTF-8
Codec ID : S_TEXT/UTF8
Codec ID/Info : UTF-8 Plain Text
Duration : 24 min 5 s
Bit rate : 91 b/s
Count of elements : 348
Stream size : 16.2 KiB (0%)
Language : Vietnamese
Default : No
Forced : No

Text #42
ID : 44
Format : UTF-8
Codec ID : S_TEXT/UTF8
Codec ID/Info : UTF-8 Plain Text
Duration : 24 min 5 s
Bit rate : 66 b/s
Count of elements : 348
Stream size : 11.7 KiB (0%)
Title : Cantonese
Language : Chinese
Default : No
Forced : No

Readme/Password

Password & My Message

Screenshots