Fast Download Mirrors

It’s a Wonderful Life (1946) • Movie | UHD.BluRay.2160p.FLAC.2.0.DV.HEVC.REMUX-FraMeSToR [46.66 GB]

It's a Wonderful Life (1946)
It's a Wonderful Life Drama, Family, Fantasy | January 7, 1947 (United States) Summary: An angel is sent from Heaven to help a desperately frustrated businessman by showing him what life would have been like if he had never existed.
Countries: United StatesLanguages: English, French

A holiday favourite for generations… George Bailey has spent his entire life giving to the people of Bedford Falls. All that prevents rich skinflint Mr. Potter from taking over the entire town is George’s modest building and loan company. But on Christmas Eve the business’s $8,000 is lost and George’s troubles begin.

Mirrors: GDrive [Gadrive, GDToT, Index, Sharer], MultiUp
Format: MKV
Credits: FraMeSToR

Download

General
Unique ID                                : 222788539394191695315905355436003785761 (0xA79B830DBFF9D2DE63B9651C31E57C21)
Complete name                            : Its.a.Wonderful.Life.1946.UHD.BluRay.2160p.FLAC.2.0.DV.HEVC.REMUX-FraMeSToR.mkv
Format                                   : Matroska
Format version                           : Version 4
File size                                : 46.7 GiB
Duration                                 : 2 h 10 min
Overall bit rate mode                    : Variable
Overall bit rate                         : 51.2 Mb/s
Movie name                               : It's a Wonderful Life (1946) DV
Encoded date                             : UTC 2020-11-29 15:11:45
Writing application                      : mkvmerge v51.0.0 ('I Wish') 64-bit
Writing library                          : libebml v1.4.0 + libmatroska v1.6.2
IMDB                                     : tt0038650
TMDB                                     : movie/1585

Video
ID                                       : 1
ID in the original source medium         : 4113 (0x1011)
Format                                   : HEVC
Format/Info                              : High Efficiency Video Coding
Format profile                           : Main 10@L5.1@High
HDR format                               : Dolby Vision, Version 1.0, dvhe.07.06, BL+EL+RPU, Blu-ray compatible / SMPTE ST 2086, HDR10 compatible
Codec ID                                 : V_MPEGH/ISO/HEVC
Duration                                 : 2 h 10 min
Bit rate                                 : 50.0 Mb/s
Width                                    : 3 840 pixels
Height                                   : 2 160 pixels
Display aspect ratio                     : 16:9
Frame rate mode                          : Constant
Frame rate                               : 23.976 (24000/1001) FPS
Color space                              : YUV
Chroma subsampling                       : 4:2:0 (Type 2)
Bit depth                                : 10 bits
Bits/(Pixel*Frame)                       : 0.252
Stream size                              : 45.6 GiB (98%)
Default                                  : Yes
Forced                                   : No
Color range                              : Limited
Color primaries                          : BT.2020
Transfer characteristics                 : PQ
Matrix coefficients                      : BT.2020 non-constant
Mastering display color primaries        : BT.2020
Mastering display luminance              : min: 0.0001 cd/m2, max: 1000 cd/m2
Original source medium                   : Blu-ray

Audio
ID                                       : 2
Format                                   : FLAC
Format/Info                              : Free Lossless Audio Codec
Codec ID                                 : A_FLAC
Duration                                 : 2 h 10 min
Bit rate mode                            : Variable
Bit rate                                 : 610 kb/s
Channel(s)                               : 2 channels
Channel layout                           : L R
Sampling rate                            : 48.0 kHz
Frame rate                               : 11.719 FPS (4096 SPF)
Bit depth                                : 24 bits
Compression mode                         : Lossless
Stream size                              : 569 MiB (1%)
Title                                    : FLAC 2.0
Writing library                          : libFLAC 1.3.3 (UTC 2019-08-04)
Language                                 : English
Default                                  : Yes
Forced                                   : No

Text #1
ID                                       : 3
Format                                   : PGS
Codec ID                                 : S_HDMV/PGS
Codec ID/Info                            : Picture based subtitle format used on BDs/HD-DVDs
Duration                                 : 2 h 8 min
Bit rate                                 : 55.2 kb/s
Count of elements                        : 4694
Stream size                              : 50.7 MiB (0%)
Title                                    : English
Language                                 : English
Default                                  : No
Forced                                   : No

Text #2
ID                                       : 4
Format                                   : PGS
Codec ID                                 : S_HDMV/PGS
Codec ID/Info                            : Picture based subtitle format used on BDs/HD-DVDs
Duration                                 : 2 h 8 min
Bit rate                                 : 59.0 kb/s
Count of elements                        : 5002
Stream size                              : 54.2 MiB (0%)
Title                                    : English (SDH)
Language                                 : English
Default                                  : No
Forced                                   : No

Text #3
ID                                       : 5
Format                                   : PGS
Codec ID                                 : S_HDMV/PGS
Codec ID/Info                            : Picture based subtitle format used on BDs/HD-DVDs
Duration                                 : 2 h 9 min
Bit rate                                 : 41.1 kb/s
Count of elements                        : 4384
Stream size                              : 38.0 MiB (0%)
Title                                    : Danish
Language                                 : Danish
Default                                  : No
Forced                                   : No

Text #4
ID                                       : 6
Format                                   : PGS
Codec ID                                 : S_HDMV/PGS
Codec ID/Info                            : Picture based subtitle format used on BDs/HD-DVDs
Duration                                 : 2 h 9 min
Bit rate                                 : 40.6 kb/s
Count of elements                        : 3540
Stream size                              : 37.5 MiB (0%)
Title                                    : Dutch
Language                                 : Dutch
Default                                  : No
Forced                                   : No

Text #5
ID                                       : 7
Format                                   : PGS
Codec ID                                 : S_HDMV/PGS
Codec ID/Info                            : Picture based subtitle format used on BDs/HD-DVDs
Duration                                 : 2 h 9 min
Bit rate                                 : 44.6 kb/s
Count of elements                        : 4210
Stream size                              : 41.3 MiB (0%)
Title                                    : Finnish
Language                                 : Finnish
Default                                  : No
Forced                                   : No

Text #6
ID                                       : 8
Format                                   : PGS
Codec ID                                 : S_HDMV/PGS
Codec ID/Info                            : Picture based subtitle format used on BDs/HD-DVDs
Duration                                 : 2 h 10 min
Bit rate                                 : 46.4 kb/s
Count of elements                        : 4442
Stream size                              : 43.2 MiB (0%)
Title                                    : French
Language                                 : French
Default                                  : No
Forced                                   : No

Text #7
ID                                       : 9
Format                                   : PGS
Codec ID                                 : S_HDMV/PGS
Codec ID/Info                            : Picture based subtitle format used on BDs/HD-DVDs
Duration                                 : 2 h 9 min
Bit rate                                 : 55.2 kb/s
Count of elements                        : 4764
Stream size                              : 51.0 MiB (0%)
Title                                    : German
Language                                 : German
Default                                  : No
Forced                                   : No

Text #8
ID                                       : 10
Format                                   : PGS
Codec ID                                 : S_HDMV/PGS
Codec ID/Info                            : Picture based subtitle format used on BDs/HD-DVDs
Duration                                 : 2 h 9 min
Bit rate                                 : 40.8 kb/s
Count of elements                        : 4380
Stream size                              : 37.7 MiB (0%)
Title                                    : Italian
Language                                 : Italian
Default                                  : No
Forced                                   : No

Text #9
ID                                       : 11
Format                                   : PGS
Codec ID                                 : S_HDMV/PGS
Codec ID/Info                            : Picture based subtitle format used on BDs/HD-DVDs
Duration                                 : 2 h 8 min
Bit rate                                 : 27.8 kb/s
Count of elements                        : 3708
Stream size                              : 25.4 MiB (0%)
Title                                    : Japanese
Language                                 : Japanese
Default                                  : No
Forced                                   : No

Text #10
ID                                       : 12
Format                                   : PGS
Codec ID                                 : S_HDMV/PGS
Codec ID/Info                            : Picture based subtitle format used on BDs/HD-DVDs
Duration                                 : 2 h 9 min
Bit rate                                 : 40.8 kb/s
Count of elements                        : 3614
Stream size                              : 37.7 MiB (0%)
Title                                    : Norwegian
Language                                 : Norwegian
Default                                  : No
Forced                                   : No

Text #11
ID                                       : 13
Format                                   : PGS
Codec ID                                 : S_HDMV/PGS
Codec ID/Info                            : Picture based subtitle format used on BDs/HD-DVDs
Duration                                 : 2 h 10 min
Bit rate                                 : 43.4 kb/s
Count of elements                        : 4376
Stream size                              : 40.4 MiB (0%)
Title                                    : Spanish (Latin American)
Language                                 : Spanish
Default                                  : No
Forced                                   : No

Text #12
ID                                       : 14
Format                                   : PGS
Codec ID                                 : S_HDMV/PGS
Codec ID/Info                            : Picture based subtitle format used on BDs/HD-DVDs
Duration                                 : 2 h 9 min
Bit rate                                 : 34.5 kb/s
Count of elements                        : 3576
Stream size                              : 31.9 MiB (0%)
Title                                    : Swedish
Language                                 : Swedish
Default                                  : No
Forced                                   : No

Menu
00:00:00.000                             : en:Opening Credits
00:03:43.306                             : en:1919: Saving Harry
00:05:25.617                             : en:Mr. Gower's Drug Store
00:07:46.549                             : en:"You Put Something Bad in Those Capsules."
00:11:39.991                             : en:1928: George Bailey, World Traveler
00:14:17.732                             : en:Last Meal
00:19:03.559                             : en:High School Reunion
00:21:14.732                             : en:The Big Charleston Contest
00:24:03.984                             : en:Walking Mary Home
00:35:16.323                             : en:Harry's Surprise
00:42:32.008                             : en:Courting Mary
00:50:16.805                             : en:Wedding Day
01:00:12.192                             : en:320 Sycamore
01:03:50.243                             : en:Bailey Park
01:13:55.806                             : en:On the Nest
01:16:51.065                             : en:December 24, 1945
01:19:07.993                             : en:Uncle Billy at the Bank
01:23:00.559                             : en:Searching for $8,000
01:30:24.753                             : en:Something Wrong with Daddy
01:32:20.618                             : en:No Help From a Warped, Frustrated Old Man
01:35:34.854                             : en:At Martini's Bar
01:38:39.956                             : en:On the Bridge
01:39:45.813                             : en:Saving George
01:46:45.190                             : en:At Nick's Place
01:52:47.928                             : en:Pottersville
02:01:25.069                             : en:"I Want to Live Again"
02:03:36.451                             : en:Homecoming
02:08:10.182                             : en:The Richest Man in Town

Readme/Password

Password & My Message