Fast Download Mirrors

Monsterland (2020-) • TVSeries

Monsterland (2020-) • TVSeries
Monsterland 3000min | Drama, Fantasy, Horror, Mystery, Thriller | October 2, 2020 (United States) Summary: Encounters with Gothic beasts, including fallen angels and werewolves, broken people are driven to desperate acts in an attempt to repair their lives, ultimately showing there is a thin line... Read all
Countries: United StatesLanguages: English

Encounters with Gothic beasts, including fallen angels and werewolves, broken people are driven to desperate acts in an attempt to repair their lives, ultimately showing there is a thin line between man and beast.

Mirrors: Gdrive Index
Format: MKV 
Season-1

Download

Video
ID : 1
Format : AVC
Format/Info : Advanced Video Codec
Format profile : High@L4
Format settings : CABAC / 4 Ref Frames
Format settings, CABAC : Yes
Format settings, Reference frames : 4 frames
Codec ID : V_MPEG4/ISO/AVC
Duration : 52 min 23 s
Bit rate : 5 014 kb/s
Width : 1 920 pixels
Height : 1 080 pixels
Display aspect ratio : 16:9
Frame rate mode : Constant
Frame rate : 23.976 (24000/1001) FPS
Color space : YUV
Chroma subsampling : 4:2:0
Bit depth : 8 bits
Scan type : Progressive
Bits/(Pixel*Frame) : 0.101
Stream size : 1.83 GiB (95%)
Default : Yes
Forced : No

Audio
ID : 2
Format : E-AC-3
Format/Info : Enhanced AC-3
Commercial name : Dolby Digital Plus
Codec ID : A_EAC3
Duration : 52 min 23 s
Bit rate mode : Constant
Bit rate : 256 kb/s
Channel(s) : 6 channels
Channel layout : L R C LFE Ls Rs
Sampling rate : 48.0 kHz
Frame rate : 31.250 FPS (1536 SPF)
Compression mode : Lossy
Stream size : 95.9 MiB (5%)
Language : English
Service kind : Complete Main
Default : Yes
Forced : No

Text #1
ID : 3
Format : UTF-8
Codec ID : S_TEXT/UTF8
Codec ID/Info : UTF-8 Plain Text
Duration : 51 min 19 s
Bit rate : 76 b/s
Count of elements : 928
Stream size : 28.8 KiB (0%)
Title : SDH
Language : English
Default : No
Forced : No

Text #2
ID : 4
Format : UTF-8
Codec ID : S_TEXT/UTF8
Codec ID/Info : UTF-8 Plain Text
Duration : 51 min 16 s
Bit rate : 82 b/s
Count of elements : 926
Stream size : 31.0 KiB (0%)
Language : Spanish
Default : No
Forced : No

Note - no subs for E07, E08

Menu
00:07:57.009 : en:00:07:57.009
00:20:19.004 : en:00:20:19.004
00:28:17.015 : en:00:28:17.015
00:36:39.000 : en:00:36:39.000
00:51:24.001 : en:Credits

Password

Password & My Message

Screenshots