Fast Download Mirrors

Naked Singularity (2021) • Movie

Naked Singularity (2021) • Movie
Naked Singularity (2021) 93min | Comedy, Crime, Drama | August 13, 2021 (United States) Summary: An idealistic young New York City public defender burned out by the system, on the brink of disbarment, and seeing signs of the universe collapsing all around him decides to rob a multi-mill... Read all
Countries: United StatesLanguages: English

An idealistic young New York City public defender burned out by the system, on the brink of disbarment, and seeing signs of the universe collapsing all around him decides to rob a multi-million drug deal of one of his clients.

Mirrors: MirrorAce, MultiUp, GDrive[SHARER]
Format: MKV
1080p.WEBRip.DD5.1.x264-CM

Download

Video
ID : 1
Format : AVC
Format/Info : Advanced Video Codec
Format profile : High@L4
Format settings : CABAC / 4 Ref Frames
Format settings, CABAC : Yes
Format settings, Reference frames : 4 frames
Codec ID : V_MPEG4/ISO/AVC
Duration : 1 h 33 min
Bit rate : 6 727 kb/s
Width : 1 916 pixels
Height : 1 036 pixels
Display aspect ratio : 1.85:1
Frame rate mode : Constant
Frame rate : 23.976 (23976/1000) FPS
Color space : YUV
Chroma subsampling : 4:2:0
Bit depth : 8 bits
Scan type : Progressive
Bits/(Pixel*Frame) : 0.141
Stream size : 4.39 GiB (95%)
Language : English
Default : Yes
Forced : No
Color range : Limited
Color primaries : BT.709
Transfer characteristics : BT.709
Matrix coefficients : BT.709

Audio
ID : 2
Format : AC-3
Format/Info : Audio Coding 3
Commercial name : Dolby Digital
Codec ID : A_AC3
Duration : 1 h 33 min
Bit rate mode : Constant
Bit rate : 384 kb/s
Channel(s) : 6 channels
Channel layout : L R C LFE Ls Rs
Sampling rate : 48.0 kHz
Frame rate : 31.250 FPS (1536 SPF)
Compression mode : Lossy
Stream size : 257 MiB (5%)
Title : English
Language : English
Service kind : Complete Main
Default : Yes
Forced : No

Text
ID : 3
Format : UTF-8
Codec ID : S_TEXT/UTF8
Codec ID/Info : UTF-8 Plain Text
Duration : 1 h 25 min
Bit rate : 60 b/s
Count of elements : 1299
Stream size : 38.0 KiB (0%)
Language : English
Default : Yes
Forced : No

Readme

Password & My Message

Screenshots