Fast Download Mirrors

No Time to Die (2021) • Movie | 2160p.UHD.BluRay.REMUX.DV.HDR.HEVC.Atmos-PiRaTeS [68.2 GB]

No Time to Die (2021)
No Time to Die Action, Adventure, Thriller | October 8, 2021 (United States) Summary: James Bond has left active service. His peace is short-lived when Felix Leiter, an old friend from the CIA, turns up asking for help, leading Bond onto the trail of a mysterious villain arme... Read all
Countries: United Kingdom, United StatesLanguages: English, French, Italian, Russian, Spanish

Bond has left active service and is enjoying a tranquil life in Jamaica. His peace is short-lived when his old friend Felix Leiter from the CIA turns up asking for help. The mission to rescue a kidnapped scientist turns out to be far more treacherous than expected, leading Bond onto the trail of a mysterious villain armed with dangerous new technology.

Mirrors: 1fichier, Gdrive[GDTOT, Sharer, GAdrive], Gdrive Index
Format: MKV
Credits: PiRaTeS

Download

General
Unique ID                                : 62845115806900749343306281774049639838 (0x2F47876F1B3E1FBA51F371916C83BD9E)
Complete name                            : No.Time.to.Die.2021.2160p.UHD.BluRay.REMUX.DV.HDR.HEVC.Atmos-PiRaTeS.mkv
Format                                   : Matroska
Format version                           : Version 2
File size                                : 68.2 GiB
Duration                                 : 2 h 43 min
Overall bit rate mode                    : Variable
Overall bit rate                         : 59.7 Mb/s
Encoded date                             : UTC 2021-12-14 04:17:47
Writing application                      : MakeMKV v1.16.5 linux(x64-release)
Writing library                          : libmakemkv v1.16.5 (1.3.10/1.5.2) x86_64-linux-gnu

Video
ID                                       : 1
ID in the original source medium         : 4113 (0x1011)
Format                                   : HEVC
Format/Info                              : High Efficiency Video Coding
Format profile                           : Main 10@L5.1@High
HDR format                               : Dolby Vision, Version 1.0, dvhe.07.06, BL+EL+RPU, Blu-ray compatible / SMPTE ST 2086, HDR10 compatible
Codec ID                                 : V_MPEGH/ISO/HEVC
Duration                                 : 2 h 43 min
Bit rate                                 : 56.6 Mb/s
Width                                    : 3 840 pixels
Height                                   : 2 160 pixels
Display aspect ratio                     : 16:9
Frame rate mode                          : Constant
Frame rate                               : 23.976 (24000/1001) FPS
Color space                              : YUV
Chroma subsampling                       : 4:2:0 (Type 2)
Bit depth                                : 10 bits
Bits/(Pixel*Frame)                       : 0.285
Stream size                              : 64.7 GiB (95%)
Language                                 : English
Default                                  : No
Forced                                   : No
Color range                              : Limited
Color primaries                          : BT.2020
Transfer characteristics                 : PQ
Matrix coefficients                      : BT.2020 non-constant
Mastering display color primaries        : Display P3
Mastering display luminance              : min: 0.0001 cd/m2, max: 1000 cd/m2
Maximum Content Light Level              : 1000 cd/m2
Maximum Frame-Average Light Level        : 901 cd/m2
Original source medium                   : Blu-ray

Audio
ID                                       : 2
ID in the original source medium         : 4352 (0x1100)
Format                                   : MLP FBA 16-ch
Format/Info                              : Meridian Lossless Packing FBA with 16-channel presentation
Commercial name                          : Dolby TrueHD with Dolby Atmos
Codec ID                                 : A_TRUEHD
Duration                                 : 2 h 43 min
Bit rate mode                            : Variable
Bit rate                                 : 3 057 kb/s
Maximum bit rate                         : 5 397 kb/s
Channel(s)                               : 8 channels
Channel layout                           : L R C LFE Ls Rs Lb Rb
Sampling rate                            : 48.0 kHz
Frame rate                               : 1 200.000 FPS (40 SPF)
Bit depth                                : 24 bits
Compression mode                         : Lossless
Stream size                              : 3.49 GiB (5%)
Language                                 : English
Default                                  : Yes
Forced                                   : No
Original source medium                   : Blu-ray
Number of dynamic objects                : 11
Bed channel count                        : 1 channel
Bed channel configuration                : LFE

Text #1
ID                                       : 3
ID in the original source medium         : 4768 (0x12A0)
Format                                   : PGS
Codec ID                                 : S_HDMV/PGS
Codec ID/Info                            : Picture based subtitle format used on BDs/HD-DVDs
Duration                                 : 2 h 39 min
Bit rate                                 : 35.4 kb/s
Count of elements                        : 4296
Stream size                              : 40.4 MiB (0%)
Language                                 : English
Default                                  : No
Forced                                   : No
Original source medium                   : Blu-ray

Text #2
ID                                       : 5
ID in the original source medium         : 4769 (0x12A1)
Format                                   : PGS
Codec ID                                 : S_HDMV/PGS
Codec ID/Info                            : Picture based subtitle format used on BDs/HD-DVDs
Duration                                 : 2 h 42 min
Bit rate                                 : 28.1 kb/s
Count of elements                        : 3024
Stream size                              : 32.6 MiB (0%)
Language                                 : German
Default                                  : No
Forced                                   : No
Original source medium                   : Blu-ray

Text #3
ID                                       : 6
ID in the original source medium         : 4770 (0x12A2)
Format                                   : PGS
Codec ID                                 : S_HDMV/PGS
Codec ID/Info                            : Picture based subtitle format used on BDs/HD-DVDs
Duration                                 : 2 h 15 min
Bit rate                                 : 449 b/s
Count of elements                        : 95
Stream size                              : 444 KiB (0%)
Language                                 : English
Default                                  : Yes
Forced                                   : No
Original source medium                   : Blu-ray

Menu
00:00:00.000                             : en:Chapter 01
00:07:00.837                             : en:Chapter 02
00:12:06.142                             : en:Chapter 03
00:18:16.095                             : en:Chapter 04
00:27:19.179                             : en:Chapter 05
00:32:48.591                             : en:Chapter 06
00:43:55.174                             : en:Chapter 07
00:57:52.844                             : en:Chapter 08
01:04:15.601                             : en:Chapter 09
01:13:15.766                             : en:Chapter 10
01:22:37.827                             : en:Chapter 11
01:33:58.382                             : en:Chapter 12
01:41:17.362                             : en:Chapter 13
01:52:46.593                             : en:Chapter 14
01:58:39.779                             : en:Chapter 15
02:05:43.994                             : en:Chapter 16
02:14:04.202                             : en:Chapter 17
02:24:08.640                             : en:Chapter 18
02:29:19.659                             : en:Chapter 19
02:37:01.161                             : en:Chapter 20

Readme/Password

Password & My Message