Fast Download Mirrors

Shang-Chi and the Legend of the Ten Rings (2021) • Movie | IMAX.2160p.DSNP.WEB-DL.DDP5.1.Atmos.DV.MP4.x265-DVSUX [16GB]

Shang-Chi and the Legend of the Ten Rings (2021)
Shang-Chi and the Legend of the Ten Rings Action, Adventure, Fantasy, Sci-Fi | September 3, 2021 (United States) Summary: Shang-Chi, the master of weaponry-based Kung Fu, is forced to confront his past after being drawn into the Ten Rings organization.
Countries: United States, AustraliaLanguages: English, Mandarin

Shang-Chi must confront the past he thought he left behind when he is drawn into the web of the mysterious Ten Rings organization.

Mirrors: 1fichier, MultiUp, Gdrive[GDTOT], Gdrive Index
Format: MKV
Credits: DVSUX

Download

Video
ID : 1
Format : HEVC
Format/Info : High Efficiency Video Coding
Format profile : Main 10@L5@High
HDR format : Dolby Vision, Version 1.0, dvhe.05.06, BL+RPU
Codec ID : dvhe
Codec ID/Info : High Efficiency Video Coding with Dolby Vision
Duration : 2 h 12 min
Bit rate : 16.7 Mb/s
Width : 3 840 pixels
Height : 2 160 pixels
Display aspect ratio : 16:9
Frame rate mode : Constant
Frame rate : 23.976 (24000/1001) FPS
Color space : YUV
Chroma subsampling : 4:2:0
Bit depth : 10 bits
Bits/(Pixel*Frame) : 0.084
Stream size : 15.4 GiB (96%)
Default : Yes
Alternate group : 1
Encoded date : UTC 2021-11-12 09:52:03
Tagged date : UTC 2021-11-12 10:41:21
Color range : Full
Codec configuration box : hvcC+dvcC

Audio
ID : 2
Format : E-AC-3 JOC
Format/Info : Enhanced AC-3 with Joint Object Coding
Commercial name : Dolby Digital Plus with Dolby Atmos
Codec ID : ec-3
Duration : 2 h 12 min
Bit rate mode : Constant
Bit rate : 768 kb/s
Maximum bit rate : 811 kb/s
Channel(s) : 6 channels
Channel layout : L R C LFE Ls Rs
Sampling rate : 48.0 kHz
Frame rate : 31.250 FPS (1536 SPF)
Compression mode : Lossy
Stream size : 727 MiB (4%)
Title : English
Language : English
Service kind : Complete Main
Default : Yes
Alternate group : 1
Tagged date : UTC 2021-11-12 10:41:21
Complexity index : Not present / 16
Number of dynamic objects : 15
Bed channel count : 1 channel
Bed channel configuration : LFE

Text #1
ID : 3
Format : Timed Text
Codec ID : tx3g
Duration : 1 h 56 min
Bit rate mode : Variable
Bit rate : 7 b/s
Stream size : 5.67 KiB (0%)
Title : English
Language : English
Forced : No
Encoded date : UTC 2021-11-12 10:41:15
Tagged date : UTC 2021-11-12 10:41:21

Text #2
ID : 4
Format : Timed Text
Codec ID : tx3g
Duration : 2 h 11 min
Bit rate mode : Variable
Bit rate : 43 b/s
Stream size : 41.2 KiB (0%)
Title : English
Language : English
Forced : No
Encoded date : UTC 2021-11-12 10:41:15
Tagged date : UTC 2021-11-12 10:41:21

Text #3
ID : 5
Format : Timed Text
Codec ID : tx3g
Duration : 2 h 11 min
Bit rate mode : Variable
Bit rate : 56 b/s
Stream size : 53.9 KiB (0%)
Title : English
Language : English
Forced : No
Encoded date : UTC 2021-11-12 10:41:15
Tagged date : UTC 2021-11-12 10:41:21

Text #4
ID : 6
Format : Timed Text
Codec ID : tx3g
Duration : 2 h 11 min
Bit rate mode : Variable
Bit rate : 32 b/s
Stream size : 31.3 KiB (0%)
Title : Chinese-Mandarin
Language : Chinese
Forced : No
Encoded date : UTC 2021-11-12 10:41:15
Tagged date : UTC 2021-11-12 10:41:21

Text #5
ID : 7
Format : Timed Text
Codec ID : tx3g
Duration : 2 h 12 min
Bit rate mode : Variable
Bit rate : 39 b/s
Stream size : 38.0 KiB (0%)
Title : Chinese-Simplified
Language : Chinese
Forced : No
Encoded date : UTC 2021-11-12 10:41:15
Tagged date : UTC 2021-11-12 10:41:21

Text #6
ID : 8
Format : Timed Text
Codec ID : tx3g
Duration : 2 h 12 min
Bit rate mode : Variable
Bit rate : 33 b/s
Stream size : 31.9 KiB (0%)
Title : Chinese-Traditional
Language : Chinese
Forced : No
Encoded date : UTC 2021-11-12 10:41:15
Tagged date : UTC 2021-11-12 10:41:21

Text #7
ID : 9
Format : Timed Text
Codec ID : tx3g
Duration : 2 h 12 min
Bit rate mode : Variable
Bit rate : 35 b/s
Stream size : 33.5 KiB (0%)
Title : Danish
Language : Danish
Forced : No
Encoded date : UTC 2021-11-12 10:41:15
Tagged date : UTC 2021-11-12 10:41:21

Text #8
ID : 10
Format : Timed Text
Codec ID : tx3g
Duration : 2 h 12 min
Bit rate mode : Variable
Bit rate : 37 b/s
Stream size : 35.6 KiB (0%)
Title : Dutch
Language : Dutch
Forced : No
Encoded date : UTC 2021-11-12 10:41:15
Tagged date : UTC 2021-11-12 10:41:21

Text #9
ID : 11
Format : Timed Text
Codec ID : tx3g
Duration : 2 h 12 min
Bit rate mode : Variable
Bit rate : 40 b/s
Stream size : 39.0 KiB (0%)
Title : Finnish
Language : Finnish
Forced : No
Encoded date : UTC 2021-11-12 10:41:15
Tagged date : UTC 2021-11-12 10:41:21

Text #10
ID : 12
Format : Timed Text
Codec ID : tx3g
Duration : 2 h 12 min
Bit rate mode : Variable
Bit rate : 36 b/s
Stream size : 34.4 KiB (0%)
Title : French
Language : French
Forced : No
Encoded date : UTC 2021-11-12 10:41:16
Tagged date : UTC 2021-11-12 10:41:21

Text #11
ID : 13
Format : Timed Text
Codec ID : tx3g
Duration : 2 h 12 min
Bit rate mode : Variable
Bit rate : 42 b/s
Stream size : 40.6 KiB (0%)
Title : French
Language : French
Forced : No
Encoded date : UTC 2021-11-12 10:41:16
Tagged date : UTC 2021-11-12 10:41:21

Text #12
ID : 14
Format : Timed Text
Codec ID : tx3g
Duration : 2 h 12 min
Bit rate mode : Variable
Bit rate : 38 b/s
Stream size : 36.3 KiB (0%)
Title : German
Language : German
Forced : No
Encoded date : UTC 2021-11-12 10:41:16
Tagged date : UTC 2021-11-12 10:41:21

Text #13
ID : 15
Format : Timed Text
Codec ID : tx3g
Duration : 2 h 12 min
Bit rate mode : Variable
Bit rate : 41 b/s
Stream size : 39.6 KiB (0%)
Title : Icelandic
Language : Icelandic
Forced : No
Encoded date : UTC 2021-11-12 10:41:16
Tagged date : UTC 2021-11-12 10:41:21

Text #14
ID : 16
Format : Timed Text
Codec ID : tx3g
Duration : 2 h 12 min
Bit rate mode : Variable
Bit rate : 41 b/s
Stream size : 39.9 KiB (0%)
Title : Italian
Language : Italian
Forced : No
Encoded date : UTC 2021-11-12 10:41:16
Tagged date : UTC 2021-11-12 10:41:21

Text #15
ID : 17
Format : Timed Text
Codec ID : tx3g
Duration : 2 h 12 min
Bit rate mode : Variable
Bit rate : 35 b/s
Stream size : 33.8 KiB (0%)
Title : Japanese
Language : Japanese
Forced : No
Encoded date : UTC 2021-11-12 10:41:16
Tagged date : UTC 2021-11-12 10:41:21

Text #16
ID : 18
Format : Timed Text
Codec ID : tx3g
Duration : 2 h 12 min
Bit rate mode : Variable
Bit rate : 40 b/s
Stream size : 38.7 KiB (0%)
Title : Korean
Language : Korean
Forced : No
Encoded date : UTC 2021-11-12 10:41:16
Tagged date : UTC 2021-11-12 10:41:21

Text #17
ID : 19
Format : Timed Text
Codec ID : tx3g
Duration : 2 h 12 min
Bit rate mode : Variable
Bit rate : 37 b/s
Stream size : 35.7 KiB (0%)
Title : Norwegian
Language : Norwegian
Forced : No
Encoded date : UTC 2021-11-12 10:41:16
Tagged date : UTC 2021-11-12 10:41:21

Text #18
ID : 20
Format : Timed Text
Codec ID : tx3g
Duration : 2 h 12 min
Bit rate mode : Variable
Bit rate : 40 b/s
Stream size : 38.8 KiB (0%)
Title : Portuguese
Language : Portuguese
Forced : No
Encoded date : UTC 2021-11-12 10:41:16
Tagged date : UTC 2021-11-12 10:41:21

Text #19
ID : 21
Format : Timed Text
Codec ID : tx3g
Duration : 2 h 12 min
Bit rate mode : Variable
Bit rate : 39 b/s
Stream size : 38.0 KiB (0%)
Title : Portuguese
Language : Portuguese
Forced : No
Encoded date : UTC 2021-11-12 10:41:16
Tagged date : UTC 2021-11-12 10:41:21

Text #20
ID : 22
Format : Timed Text
Codec ID : tx3g
Duration : 2 h 12 min
Bit rate mode : Variable
Bit rate : 38 b/s
Stream size : 36.4 KiB (0%)
Title : Spanish-EU
Language : Spanish
Forced : No
Encoded date : UTC 2021-11-12 10:41:16
Tagged date : UTC 2021-11-12 10:41:21

Text #21
ID : 23
Format : Timed Text
Codec ID : tx3g
Duration : 2 h 12 min
Bit rate mode : Variable
Bit rate : 41 b/s
Stream size : 39.5 KiB (0%)
Title : Spanish-EU
Language : Spanish
Forced : No
Encoded date : UTC 2021-11-12 10:41:17
Tagged date : UTC 2021-11-12 10:41:21

Text #22
ID : 24
Format : Timed Text
Codec ID : tx3g
Duration : 2 h 12 min
Bit rate mode : Variable
Bit rate : 33 b/s
Stream size : 32.3 KiB (0%)
Title : Swedish
Language : Swedish
Forced : No
Encoded date : UTC 2021-11-12 10:41:21
Tagged date : UTC 2021-11-12 10:41:21

Readme/Password

Password & My Message