Fast Download Mirrors

Squid Game (2021-) • TVSeries

Squid Game (2021-) • TVSeries
Squid Game 60min | Action, Adventure, Drama, Mystery, Thriller | September 17, 2021 (United States) Summary: Hundreds of cash-strapped players accept a strange invitation to compete in children's games. Inside, a tempting prize awaits with deadly high stakes.s survival game that has a whopping 40-m... Read all
Countries: South KoreaLanguages: Korean

Hundreds of cash-strapped players accept a strange invitation to compete in children’s games. Inside, a tempting prize awaits with deadly high stakes.s survival game that has a whopping 40-million-dollar prize at stake.

Mirrors: MirrorAce, MultiUp, Gdrive[GDTOT, Sharer], Gdrive Index
Format: MKV
Credits: Telly
Season-1 Complete

Download – [Web-DL]

Squid.Game.S01E01.Red.Light.Green.Light.1080p.NF.WEB-DL.DD+5.1.Atmos.HDR.HEVC-Telly.mkv - 2.98 GB
Squid.Game.S01E02.Hell.1080p.NF.WEB-DL.DD+5.1.Atmos.HDR.HEVC-Telly.mkv - 3.13 GB
Squid.Game.S01E03.the.Man.With.the.Umbrella.1080p.NF.WEB-DL.DD+5.1.Atmos.HDR.HEVC-Telly.mkv - 2.79 GB
Squid.Game.S01E04.Stick.to.the.Team.1080p.NF.WEB-DL.DD+5.1.Atmos.HDR.HEVC-Telly.mkv - 2.79 GB
Squid.Game.S01E05.a.Fair.World.1080p.NF.WEB-DL.DD+5.1.Atmos.HDR.HEVC-Telly.mkv - 2.58 GB
Squid.Game.S01E06.Gganbu.1080p.NF.WEB-DL.DD+5.1.Atmos.HDR.HEVC-Telly.mkv - 3.17 GB
Squid.Game.S01E07.Vips.1080p.NF.WEB-DL.DD+5.1.Atmos.HDR.HEVC-Telly.mkv - 3.01 GB
Squid.Game.S01E08.Front.Man.1080p.NF.WEB-DL.DD+5.1.Atmos.HDR.HEVC-Telly.mkv - 1.57 GB
Squid.Game.S01E09.One.Lucky.Day.1080p.NF.WEB-DL.DD+5.1.Atmos.HDR.HEVC-Telly.mkv - 2.65 GB

https://mirrorace.org/m/13oqb
https://mirrorace.org/m/13oqe
https://mirrorace.org/m/13oqg
https://mirrorace.org/m/13oqh
https://mirrorace.org/m/13oqj
https://mirrorace.org/m/13oqk
https://mirrorace.org/m/13oql
https://mirrorace.org/m/13oqn
https://mirrorace.org/m/13oqo

https://multiup.org/9ec1317f6a0d811afa105a90a8bfb042
https://multiup.org/55127530f7055e9921640d99b59f2769
https://multiup.org/9ac89a9c8c1a400e996cde79408e776b
https://multiup.org/83543fde977c01296fe0834f843af863
https://multiup.org/ba64b6172d974e146b9e9413d34c87b5
https://multiup.org/855de8b35f9ad33efadd681301a7d179
https://multiup.org/0938908c59416f1af734db5d124c74e7
https://multiup.org/8095ae27d06f76df83da247ecc6413a0

https://new.gdtot.me/file/6409102919
https://new.gdtot.me/file/6715517333
https://new.gdtot.me/file/5984781967
https://new.gdtot.me/file/5995778131
https://new.gdtot.me/file/5545244543
https://new.gdtot.me/file/6813211251
https://new.gdtot.me/file/6462060915
https://new.gdtot.me/file/3363639429
https://new.gdtot.me/file/5694779735

https://sharer.pw/file/bh4G-Qz1z8xu
https://sharer.pw/file/Rh4t1iVTLp5I
https://sharer.pw/file/az5xweeG9gK2
https://sharer.pw/file/K80Jlknaqzey
https://sharer.pw/file/GWP068FbDwwz
https://sharer.pw/file/qh76_PhUhuEZ
https://sharer.pw/file/ro2_0ZroifdX
https://sharer.pw/file/X5nHMO2ySF8F
https://sharer.pw/file/UMbFwo8N0mRB
General
Unique ID                                : 1232995051098984735677772481348057263 (0xED7759796AE8EC177B4188FE6538AF)
Complete name                            : Squid.Game.S01E01.Red.Light.Green.Light.1080p.NF.WEB-DL.DD+5.1.Atmos.HDR.HEVC-Telly.mkv
Format                                   : Matroska
Format version                           : Version 4
File size                                : 2.98 GiB
Duration                                 : 59 min 42 s
Overall bit rate                         : 7 156 kb/s
Movie name                               : Telly
Encoded date                             : UTC 2021-09-17 07:35:29
Writing application                      : mkvmerge v59.0.0 ('Shining Star') 64-bit
Writing library                          : libebml v1.4.2 + libmatroska v1.6.4

Video
ID                                       : 1
Format                                   : HEVC
Format/Info                              : High Efficiency Video Coding
Commercial name                          : HDR10
Format profile                           : Main 10@L4@Main
Codec ID                                 : V_MPEGH/ISO/HEVC
Duration                                 : 58 min 17 s
Bit rate                                 : 5 095 kb/s
Width                                    : 1 920 pixels
Height                                   : 1 080 pixels
Display aspect ratio                     : 16:9
Frame rate mode                          : Constant
Frame rate                               : 23.976 (24000/1001) FPS
Color space                              : YUV
Chroma subsampling                       : 4:2:0 (Type 2)
Bit depth                                : 10 bits
Bits/(Pixel*Frame)                       : 0.102
Stream size                              : 2.07 GiB (70%)
Default                                  : Yes
Forced                                   : No
Color range                              : Limited
Color primaries                          : BT.2020
Transfer characteristics                 : PQ
Matrix coefficients                      : BT.2020 non-constant
Mastering display color primaries        : Display P3
Mastering display luminance              : min: 0.0001 cd/m2, max: 1000 cd/m2
Maximum Content Light Level              : 1156 cd/m2
Maximum Frame-Average Light Level        : 402 cd/m2

Audio #1
ID                                       : 2
Format                                   : E-AC-3
Format/Info                              : Enhanced AC-3
Commercial name                          : Dolby Digital Plus
Codec ID                                 : A_EAC3
Duration                                 : 59 min 42 s
Bit rate mode                            : Constant
Bit rate                                 : 640 kb/s
Channel(s)                               : 6 channels
Channel layout                           : L R C LFE Ls Rs
Sampling rate                            : 48.0 kHz
Frame rate                               : 31.250 FPS (1536 SPF)
Compression mode                         : Lossy
Stream size                              : 273 MiB (9%)
Title                                    : Hindi
Language                                 : Hindi
Service kind                             : Complete Main
Default                                  : Yes
Forced                                   : No

Audio #2
ID                                       : 3
Format                                   : E-AC-3 JOC
Format/Info                              : Enhanced AC-3 with Joint Object Coding
Commercial name                          : Dolby Digital Plus with Dolby Atmos
Codec ID                                 : A_EAC3
Duration                                 : 59 min 42 s
Bit rate mode                            : Constant
Bit rate                                 : 768 kb/s
Channel(s)                               : 6 channels
Channel layout                           : L R C LFE Ls Rs
Sampling rate                            : 48.0 kHz
Frame rate                               : 31.250 FPS (1536 SPF)
Compression mode                         : Lossy
Stream size                              : 328 MiB (11%)
Title                                    : English
Language                                 : English
Service kind                             : Complete Main
Default                                  : No
Forced                                   : No
Complexity index                         : 16
Number of dynamic objects                : 15
Bed channel count                        : 1 channel
Bed channel configuration                : LFE

Audio #3
ID                                       : 4
Format                                   : E-AC-3 JOC
Format/Info                              : Enhanced AC-3 with Joint Object Coding
Commercial name                          : Dolby Digital Plus with Dolby Atmos
Codec ID                                 : A_EAC3
Duration                                 : 59 min 42 s
Bit rate mode                            : Constant
Bit rate                                 : 768 kb/s
Channel(s)                               : 6 channels
Channel layout                           : L R C LFE Ls Rs
Sampling rate                            : 48.0 kHz
Frame rate                               : 31.250 FPS (1536 SPF)
Compression mode                         : Lossy
Stream size                              : 328 MiB (11%)
Title                                    : Korean
Language                                 : Korean
Service kind                             : Complete Main
Default                                  : No
Forced                                   : No
Complexity index                         : 16
Number of dynamic objects                : 15
Bed channel count                        : 1 channel
Bed channel configuration                : LFE

Text #1
ID                                       : 5
Format                                   : UTF-8
Codec ID                                 : S_TEXT/UTF8
Codec ID/Info                            : UTF-8 Plain Text
Duration                                 : 51 min 18 s
Bit rate                                 : 60 b/s
Count of elements                        : 703
Stream size                              : 22.7 KiB (0%)
Title                                    : English
Language                                 : English
Default                                  : No
Forced                                   : No

Text #2
ID                                       : 6
Format                                   : UTF-8
Codec ID                                 : S_TEXT/UTF8
Codec ID/Info                            : UTF-8 Plain Text
Duration                                 : 51 min 18 s
Bit rate                                 : 60 b/s
Count of elements                        : 703
Stream size                              : 22.7 KiB (0%)
Title                                    : English
Language                                 : English
Default                                  : No
Forced                                   : No

Text #3
ID                                       : 7
Format                                   : UTF-8
Codec ID                                 : S_TEXT/UTF8
Codec ID/Info                            : UTF-8 Plain Text
Duration                                 : 58 min 6 s
Bit rate                                 : 79 b/s
Count of elements                        : 642
Stream size                              : 33.6 KiB (0%)
Title                                    : Arabic
Language                                 : Arabic
Default                                  : No
Forced                                   : No

Text #4
ID                                       : 8
Format                                   : UTF-8
Codec ID                                 : S_TEXT/UTF8
Codec ID/Info                            : UTF-8 Plain Text
Duration                                 : 58 min 6 s
Bit rate                                 : 45 b/s
Count of elements                        : 648
Stream size                              : 19.4 KiB (0%)
Title                                    : Chinese Simplified
Language                                 : Chinese
Default                                  : No
Forced                                   : No

Text #5
ID                                       : 9
Format                                   : UTF-8
Codec ID                                 : S_TEXT/UTF8
Codec ID/Info                            : UTF-8 Plain Text
Duration                                 : 58 min 6 s
Bit rate                                 : 46 b/s
Count of elements                        : 648
Stream size                              : 19.8 KiB (0%)
Title                                    : Chinese Traditional
Language                                 : Chinese
Default                                  : No
Forced                                   : No

Text #6
ID                                       : 10
Format                                   : UTF-8
Codec ID                                 : S_TEXT/UTF8
Codec ID/Info                            : UTF-8 Plain Text
Duration                                 : 58 min 6 s
Bit rate                                 : 40 b/s
Count of elements                        : 641
Stream size                              : 17.4 KiB (0%)
Title                                    : Croatian
Language                                 : Croatian
Default                                  : No
Forced                                   : No

Text #7
ID                                       : 11
Format                                   : UTF-8
Codec ID                                 : S_TEXT/UTF8
Codec ID/Info                            : UTF-8 Plain Text
Duration                                 : 58 min 6 s
Bit rate                                 : 44 b/s
Count of elements                        : 641
Stream size                              : 18.9 KiB (0%)
Title                                    : Czech
Language                                 : Czech
Default                                  : No
Forced                                   : No

Text #8
ID                                       : 12
Format                                   : UTF-8
Codec ID                                 : S_TEXT/UTF8
Codec ID/Info                            : UTF-8 Plain Text
Duration                                 : 58 min 7 s
Bit rate                                 : 47 b/s
Count of elements                        : 641
Stream size                              : 20.1 KiB (0%)
Title                                    : Danish
Language                                 : Danish
Default                                  : No
Forced                                   : No

Text #9
ID                                       : 13
Format                                   : UTF-8
Codec ID                                 : S_TEXT/UTF8
Codec ID/Info                            : UTF-8 Plain Text
Duration                                 : 58 min 6 s
Bit rate                                 : 43 b/s
Count of elements                        : 632
Stream size                              : 18.6 KiB (0%)
Title                                    : Dutch
Language                                 : Dutch
Default                                  : No
Forced                                   : No

Text #10
ID                                       : 14
Format                                   : UTF-8
Codec ID                                 : S_TEXT/UTF8
Codec ID/Info                            : UTF-8 Plain Text
Duration                                 : 58 min 6 s
Bit rate                                 : 46 b/s
Count of elements                        : 641
Stream size                              : 19.8 KiB (0%)
Title                                    : Finnish
Language                                 : Finnish
Default                                  : No
Forced                                   : No

Text #11
ID                                       : 15
Format                                   : UTF-8
Codec ID                                 : S_TEXT/UTF8
Codec ID/Info                            : UTF-8 Plain Text
Duration                                 : 58 min 6 s
Bit rate                                 : 49 b/s
Count of elements                        : 640
Stream size                              : 21.1 KiB (0%)
Title                                    : French
Language                                 : French
Default                                  : No
Forced                                   : No

Text #12
ID                                       : 16
Format                                   : UTF-8
Codec ID                                 : S_TEXT/UTF8
Codec ID/Info                            : UTF-8 Plain Text
Duration                                 : 58 min 6 s
Bit rate                                 : 44 b/s
Count of elements                        : 641
Stream size                              : 19.0 KiB (0%)
Title                                    : German
Language                                 : German
Default                                  : No
Forced                                   : No

Text #13
ID                                       : 17
Format                                   : UTF-8
Codec ID                                 : S_TEXT/UTF8
Codec ID/Info                            : UTF-8 Plain Text
Duration                                 : 58 min 6 s
Bit rate                                 : 79 b/s
Count of elements                        : 630
Stream size                              : 33.7 KiB (0%)
Title                                    : Greek
Language                                 : Greek
Default                                  : No
Forced                                   : No

Text #14
ID                                       : 18
Format                                   : UTF-8
Codec ID                                 : S_TEXT/UTF8
Codec ID/Info                            : UTF-8 Plain Text
Duration                                 : 58 min 6 s
Bit rate                                 : 67 b/s
Count of elements                        : 642
Stream size                              : 28.6 KiB (0%)
Title                                    : Hebrew
Language                                 : Hebrew
Default                                  : No
Forced                                   : No

Text #15
ID                                       : 19
Format                                   : UTF-8
Codec ID                                 : S_TEXT/UTF8
Codec ID/Info                            : UTF-8 Plain Text
Duration                                 : 58 min 6 s
Bit rate                                 : 44 b/s
Count of elements                        : 641
Stream size                              : 19.1 KiB (0%)
Title                                    : Hungarian
Language                                 : Hungarian
Default                                  : No
Forced                                   : No

Text #16
ID                                       : 20
Format                                   : UTF-8
Codec ID                                 : S_TEXT/UTF8
Codec ID/Info                            : UTF-8 Plain Text
Duration                                 : 58 min 6 s
Bit rate                                 : 48 b/s
Count of elements                        : 646
Stream size                              : 20.5 KiB (0%)
Title                                    : Indonesian
Language                                 : Indonesian
Default                                  : No
Forced                                   : No

Text #17
ID                                       : 21
Format                                   : UTF-8
Codec ID                                 : S_TEXT/UTF8
Codec ID/Info                            : UTF-8 Plain Text
Duration                                 : 58 min 6 s
Bit rate                                 : 46 b/s
Count of elements                        : 641
Stream size                              : 19.9 KiB (0%)
Title                                    : Italian
Language                                 : Italian
Default                                  : No
Forced                                   : No

Text #18
ID                                       : 22
Format                                   : UTF-8
Codec ID                                 : S_TEXT/UTF8
Codec ID/Info                            : UTF-8 Plain Text
Duration                                 : 58 min 5 s
Bit rate                                 : 45 b/s
Count of elements                        : 598
Stream size                              : 19.2 KiB (0%)
Title                                    : Japanese
Language                                 : Japanese
Default                                  : No
Forced                                   : No

Text #19
ID                                       : 23
Format                                   : UTF-8
Codec ID                                 : S_TEXT/UTF8
Codec ID/Info                            : UTF-8 Plain Text
Duration                                 : 58 min 5 s
Bit rate                                 : 82 b/s
Count of elements                        : 995
Stream size                              : 35.0 KiB (0%)
Title                                    : Korean
Language                                 : Korean
Default                                  : No
Forced                                   : No

Text #20
ID                                       : 24
Format                                   : UTF-8
Codec ID                                 : S_TEXT/UTF8
Codec ID/Info                            : UTF-8 Plain Text
Duration                                 : 58 min 5 s
Bit rate                                 : 0 b/s
Count of elements                        : 7
Stream size                              : 180 Bytes (0%)
Title                                    : Forced
Language                                 : Korean
Default                                  : No
Forced                                   : Yes

Text #21
ID                                       : 25
Format                                   : UTF-8
Codec ID                                 : S_TEXT/UTF8
Codec ID/Info                            : UTF-8 Plain Text
Duration                                 : 58 min 6 s
Bit rate                                 : 45 b/s
Count of elements                        : 645
Stream size                              : 19.4 KiB (0%)
Title                                    : Malay
Language                                 : Malay
Default                                  : No
Forced                                   : No

Text #22
ID                                       : 26
Format                                   : UTF-8
Codec ID                                 : S_TEXT/UTF8
Codec ID/Info                            : UTF-8 Plain Text
Duration                                 : 58 min 6 s
Bit rate                                 : 45 b/s
Count of elements                        : 641
Stream size                              : 19.2 KiB (0%)
Title                                    : Norwegian Bokmal
Language                                 : Norwegian Bokmal
Default                                  : No
Forced                                   : No

Text #23
ID                                       : 27
Format                                   : UTF-8
Codec ID                                 : S_TEXT/UTF8
Codec ID/Info                            : UTF-8 Plain Text
Duration                                 : 58 min 6 s
Bit rate                                 : 43 b/s
Count of elements                        : 641
Stream size                              : 18.3 KiB (0%)
Title                                    : Polish
Language                                 : Polish
Default                                  : No
Forced                                   : No

Text #24
ID                                       : 28
Format                                   : UTF-8
Codec ID                                 : S_TEXT/UTF8
Codec ID/Info                            : UTF-8 Plain Text
Duration                                 : 58 min 6 s
Bit rate                                 : 45 b/s
Count of elements                        : 641
Stream size                              : 19.4 KiB (0%)
Title                                    : Portuguese
Language                                 : Portuguese
Default                                  : No
Forced                                   : No

Text #25
ID                                       : 29
Format                                   : UTF-8
Codec ID                                 : S_TEXT/UTF8
Codec ID/Info                            : UTF-8 Plain Text
Duration                                 : 58 min 6 s
Bit rate                                 : 44 b/s
Count of elements                        : 641
Stream size                              : 19.0 KiB (0%)
Title                                    : Brazilian Portuguese
Language                                 : Portuguese
Default                                  : No
Forced                                   : No

Text #26
ID                                       : 30
Format                                   : UTF-8
Codec ID                                 : S_TEXT/UTF8
Codec ID/Info                            : UTF-8 Plain Text
Duration                                 : 58 min 6 s
Bit rate                                 : 51 b/s
Count of elements                        : 641
Stream size                              : 22.1 KiB (0%)
Title                                    : Romanian
Language                                 : Romanian
Default                                  : No
Forced                                   : No

Text #27
ID                                       : 31
Format                                   : UTF-8
Codec ID                                 : S_TEXT/UTF8
Codec ID/Info                            : UTF-8 Plain Text
Duration                                 : 58 min 6 s
Bit rate                                 : 73 b/s
Count of elements                        : 641
Stream size                              : 31.3 KiB (0%)
Title                                    : Russian
Language                                 : Russian
Default                                  : No
Forced                                   : No

Text #28
ID                                       : 32
Format                                   : UTF-8
Codec ID                                 : S_TEXT/UTF8
Codec ID/Info                            : UTF-8 Plain Text
Duration                                 : 58 min 6 s
Bit rate                                 : 46 b/s
Count of elements                        : 641
Stream size                              : 19.8 KiB (0%)
Title                                    : Spanish
Language                                 : Spanish
Default                                  : No
Forced                                   : No

Text #29
ID                                       : 33
Format                                   : UTF-8
Codec ID                                 : S_TEXT/UTF8
Codec ID/Info                            : UTF-8 Plain Text
Duration                                 : 58 min 6 s
Bit rate                                 : 45 b/s
Count of elements                        : 641
Stream size                              : 19.2 KiB (0%)
Title                                    : European Spanish
Language                                 : Spanish
Default                                  : No
Forced                                   : No

Text #30
ID                                       : 34
Format                                   : UTF-8
Codec ID                                 : S_TEXT/UTF8
Codec ID/Info                            : UTF-8 Plain Text
Duration                                 : 58 min 6 s
Bit rate                                 : 46 b/s
Count of elements                        : 641
Stream size                              : 19.6 KiB (0%)
Title                                    : Swedish
Language                                 : Swedish
Default                                  : No
Forced                                   : No

Text #31
ID                                       : 35
Format                                   : UTF-8
Codec ID                                 : S_TEXT/UTF8
Codec ID/Info                            : UTF-8 Plain Text
Duration                                 : 58 min 6 s
Bit rate                                 : 120 b/s
Count of elements                        : 642
Stream size                              : 51.4 KiB (0%)
Title                                    : Thai
Language                                 : Thai
Default                                  : No
Forced                                   : No

Text #32
ID                                       : 36
Format                                   : UTF-8
Codec ID                                 : S_TEXT/UTF8
Codec ID/Info                            : UTF-8 Plain Text
Duration                                 : 58 min 6 s
Bit rate                                 : 47 b/s
Count of elements                        : 642
Stream size                              : 20.1 KiB (0%)
Title                                    : Turkish
Language                                 : Turkish
Default                                  : No
Forced                                   : No

Text #33
ID                                       : 37
Format                                   : UTF-8
Codec ID                                 : S_TEXT/UTF8
Codec ID/Info                            : UTF-8 Plain Text
Duration                                 : 58 min 6 s
Bit rate                                 : 76 b/s
Count of elements                        : 642
Stream size                              : 32.8 KiB (0%)
Title                                    : Ukrainian
Language                                 : Ukrainian
Default                                  : No
Forced                                   : No

Text #34
ID                                       : 38
Format                                   : UTF-8
Codec ID                                 : S_TEXT/UTF8
Codec ID/Info                            : UTF-8 Plain Text
Duration                                 : 58 min 6 s
Bit rate                                 : 66 b/s
Count of elements                        : 641
Stream size                              : 28.1 KiB (0%)
Title                                    : Vietnamese
Language                                 : Vietnamese
Default                                  : No
Forced                                   : No

Download – [Single File]


Readme

Password & My Message

Screenshots