Fast Download Mirrors

The Gray Man (2022) • Movie | 1080p.NF.WEB.DL.HDR-DoVi.HEVC.10bit.Multi.DDP5.1.Atmos.768k-DDH [8.7GB]

The Gray Man (2022)
The Gray Man | July 22, 2022 (United States) Summary:
Countries: Czech Republic, United StatesLanguages: English

When the CIA’s most skilled mercenary known as Court Gentry, aka Sierra Six, accidentally uncovers dark agency secrets, he becomes a primary target and is hunted around the world by psychopathic former colleague Lloyd Hansen and international assassins.

Mirrors: Gdrive[GDTOT, Sharer], 1fichier
Format: MKV
Credits: DDH

Download

General
Complete name                            : The.Gray.Man.2022.HQ.1080p.NF.WEB.DL.HDR-DoVi.HEVC.10bit.Multi.DDP5.1.Atmos.768k-DDH.mkv
Format                                   : Matroska
Format version                           : Version 4
File size                                : 8.70 GiB
Duration                                 : 2 h 9 min
Overall bit rate                         : 9 649 kb/s
Movie name                               : DDH
Encoded date                             : UTC 2022-07-22 13:55:46
Writing application                      : mkvmerge v67.0.0 ('Under Stars') 64-bit
Writing library                          : libebml v1.4.2 + libmatroska v1.6.4

Video
ID                                       : 1
Format                                   : HEVC
Format/Info                              : High Efficiency Video Coding
Format profile                           : Main 10@L4@Main
HDR format                               : Dolby Vision, Version 1.0, dvhe.05.03, BL+RPU
Codec ID                                 : V_MPEGH/ISO/HEVC
Duration                                 : 2 h 9 min
Bit rate                                 : 5 546 kb/s
Width                                    : 1 920 pixels
Height                                   : 1 080 pixels
Display aspect ratio                     : 16:9
Frame rate mode                          : Constant
Frame rate                               : 24.000 FPS
Color space                              : YUV
Chroma subsampling                       : 4:2:0
Bit depth                                : 10 bits
Bits/(Pixel*Frame)                       : 0.111
Stream size                              : 5.00 GiB (57%)
Title                                    : DDH
Default                                  : Yes
Forced                                   : No
Color range                              : Full

Audio #1
ID                                       : 2
Format                                   : E-AC-3
Format/Info                              : Enhanced AC-3
Commercial name                          : Dolby Digital Plus
Codec ID                                 : A_EAC3
Duration                                 : 2 h 9 min
Bit rate mode                            : Constant
Bit rate                                 : 640 kb/s
Channel(s)                               : 6 channels
Channel layout                           : L R C LFE Ls Rs
Sampling rate                            : 48.0 kHz
Frame rate                               : 31.250 FPS (1536 SPF)
Compression mode                         : Lossy
Stream size                              : 591 MiB (7%)
Title                                    : DDH - DDP 5.1 640k
Language                                 : Malayalam
Service kind                             : Complete Main
Default                                  : Yes
Forced                                   : No

Audio #2
ID                                       : 3
Format                                   : E-AC-3
Format/Info                              : Enhanced AC-3
Commercial name                          : Dolby Digital Plus
Codec ID                                 : A_EAC3
Duration                                 : 2 h 9 min
Bit rate mode                            : Constant
Bit rate                                 : 640 kb/s
Channel(s)                               : 6 channels
Channel layout                           : L R C LFE Ls Rs
Sampling rate                            : 48.0 kHz
Frame rate                               : 31.250 FPS (1536 SPF)
Compression mode                         : Lossy
Stream size                              : 591 MiB (7%)
Title                                    : DDH - DDP 5.1 640k
Language                                 : Tamil
Service kind                             : Complete Main
Default                                  : Yes
Forced                                   : No

Audio #3
ID                                       : 4
Format                                   : E-AC-3
Format/Info                              : Enhanced AC-3
Commercial name                          : Dolby Digital Plus
Codec ID                                 : A_EAC3
Duration                                 : 2 h 9 min
Bit rate mode                            : Constant
Bit rate                                 : 640 kb/s
Channel(s)                               : 6 channels
Channel layout                           : L R C LFE Ls Rs
Sampling rate                            : 48.0 kHz
Frame rate                               : 31.250 FPS (1536 SPF)
Compression mode                         : Lossy
Stream size                              : 591 MiB (7%)
Title                                    : DDH - DDP 5.1 640k
Language                                 : Telugu
Service kind                             : Complete Main
Default                                  : Yes
Forced                                   : No

Audio #4
ID                                       : 5
Format                                   : E-AC-3
Format/Info                              : Enhanced AC-3
Commercial name                          : Dolby Digital Plus
Codec ID                                 : A_EAC3
Duration                                 : 2 h 9 min
Bit rate mode                            : Constant
Bit rate                                 : 640 kb/s
Channel(s)                               : 6 channels
Channel layout                           : L R C LFE Ls Rs
Sampling rate                            : 48.0 kHz
Frame rate                               : 31.250 FPS (1536 SPF)
Compression mode                         : Lossy
Stream size                              : 591 MiB (7%)
Title                                    : DDH - DDP 5.1 640k
Language                                 : Kannada
Service kind                             : Complete Main
Default                                  : Yes
Forced                                   : No

Audio #5
ID                                       : 6
Format                                   : E-AC-3 JOC
Format/Info                              : Enhanced AC-3 with Joint Object Coding
Commercial name                          : Dolby Digital Plus with Dolby Atmos
Codec ID                                 : A_EAC3
Duration                                 : 2 h 9 min
Bit rate mode                            : Constant
Bit rate                                 : 768 kb/s
Channel(s)                               : 6 channels
Channel layout                           : L R C LFE Ls Rs
Sampling rate                            : 48.0 kHz
Frame rate                               : 31.250 FPS (1536 SPF)
Compression mode                         : Lossy
Stream size                              : 709 MiB (8%)
Title                                    : DDH - Atmos 5.1 768k
Language                                 : Hindi
Service kind                             : Complete Main
Default                                  : Yes
Forced                                   : No
Complexity index                         : 16
Number of dynamic objects                : 15
Bed channel count                        : 1 channel
Bed channel configuration                : LFE

Audio #6
ID                                       : 7
Format                                   : E-AC-3 JOC
Format/Info                              : Enhanced AC-3 with Joint Object Coding
Commercial name                          : Dolby Digital Plus with Dolby Atmos
Codec ID                                 : A_EAC3
Duration                                 : 2 h 9 min
Bit rate mode                            : Constant
Bit rate                                 : 768 kb/s
Channel(s)                               : 6 channels
Channel layout                           : L R C LFE Ls Rs
Sampling rate                            : 48.0 kHz
Frame rate                               : 31.250 FPS (1536 SPF)
Compression mode                         : Lossy
Stream size                              : 709 MiB (8%)
Title                                    : DDH - Atmos 5.1 768k
Language                                 : English
Service kind                             : Complete Main
Default                                  : Yes
Forced                                   : No
Complexity index                         : 16
Number of dynamic objects                : 15
Bed channel count                        : 1 channel
Bed channel configuration                : LFE

Text #1
ID                                       : 8
Format                                   : UTF-8
Codec ID                                 : S_TEXT/UTF8
Codec ID/Info                            : UTF-8 Plain Text
Bit rate                                 : 0 b/s
Count of elements                        : 0
Stream size                              : 0.00 Byte (0%)
Title                                    : DDH - Arabic [Full]
Language                                 : Arabic
Default                                  : No
Forced                                   : No

Text #2
ID                                       : 9
Format                                   : UTF-8
Codec ID                                 : S_TEXT/UTF8
Codec ID/Info                            : UTF-8 Plain Text
Duration                                 : 2 h 6 min
Bit rate                                 : 38 b/s
Count of elements                        : 1242
Stream size                              : 35.5 KiB (0%)
Title                                    : DDH - Catalan [Full]
Language                                 : Catalan
Default                                  : No
Forced                                   : No

Text #3
ID                                       : 10
Format                                   : UTF-8
Codec ID                                 : S_TEXT/UTF8
Codec ID/Info                            : UTF-8 Plain Text
Duration                                 : 2 h 6 min
Bit rate                                 : 64 b/s
Count of elements                        : 1051
Stream size                              : 59.7 KiB (0%)
Title                                    : DDH - Czech [Full]
Language                                 : Czech
Default                                  : No
Forced                                   : No

Text #4
ID                                       : 11
Format                                   : UTF-8
Codec ID                                 : S_TEXT/UTF8
Codec ID/Info                            : UTF-8 Plain Text
Duration                                 : 2 h 6 min
Bit rate                                 : 39 b/s
Count of elements                        : 1256
Stream size                              : 36.8 KiB (0%)
Title                                    : DDH - Danish [Full]
Language                                 : Danish
Default                                  : No
Forced                                   : No

Text #5
ID                                       : 12
Format                                   : UTF-8
Codec ID                                 : S_TEXT/UTF8
Codec ID/Info                            : UTF-8 Plain Text
Duration                                 : 2 h 6 min
Bit rate                                 : 40 b/s
Count of elements                        : 1251
Stream size                              : 37.6 KiB (0%)
Title                                    : DDH - German [Full]
Language                                 : German
Default                                  : No
Forced                                   : No

Text #6
ID                                       : 13
Format                                   : UTF-8
Codec ID                                 : S_TEXT/UTF8
Codec ID/Info                            : UTF-8 Plain Text
Duration                                 : 2 h 6 min
Bit rate                                 : 69 b/s
Count of elements                        : 1187
Stream size                              : 64.1 KiB (0%)
Title                                    : DDH - Modern Greek (1453-) [Full]
Language                                 : Greek
Default                                  : No
Forced                                   : No

Text #7
ID                                       : 14
Format                                   : UTF-8
Codec ID                                 : S_TEXT/UTF8
Codec ID/Info                            : UTF-8 Plain Text
Duration                                 : 2 h 0 min
Bit rate                                 : 58 b/s
Count of elements                        : 1679
Stream size                              : 51.8 KiB (0%)
Title                                    : DDH - Spanish [Full]
Language                                 : Spanish
Default                                  : No
Forced                                   : No

Text #8
ID                                       : 15
Format                                   : UTF-8
Codec ID                                 : S_TEXT/UTF8
Codec ID/Info                            : UTF-8 Plain Text
Duration                                 : 2 h 6 min
Bit rate                                 : 37 b/s
Count of elements                        : 1292
Stream size                              : 34.5 KiB (0%)
Title                                    : DDH - Basque [Full]
Language                                 : Basque
Default                                  : No
Forced                                   : No

Text #9
ID                                       : 16
Format                                   : UTF-8
Codec ID                                 : S_TEXT/UTF8
Codec ID/Info                            : UTF-8 Plain Text
Duration                                 : 2 h 6 min
Bit rate                                 : 34 b/s
Count of elements                        : 1288
Stream size                              : 31.7 KiB (0%)
Title                                    : DDH - Finnish [Full]
Language                                 : Finnish
Default                                  : No
Forced                                   : No

Text #10
ID                                       : 17
Format                                   : UTF-8
Codec ID                                 : S_TEXT/UTF8
Codec ID/Info                            : UTF-8 Plain Text
Duration                                 : 2 h 6 min
Bit rate                                 : 42 b/s
Count of elements                        : 1267
Stream size                              : 39.1 KiB (0%)
Title                                    : DDH - Filipino [Full]
Language                                 : fil
Default                                  : No
Forced                                   : No

Text #11
ID                                       : 18
Format                                   : UTF-8
Codec ID                                 : S_TEXT/UTF8
Codec ID/Info                            : UTF-8 Plain Text
Duration                                 : 2 h 6 min
Bit rate                                 : 40 b/s
Count of elements                        : 1275
Stream size                              : 37.8 KiB (0%)
Title                                    : DDH - French [Full]
Language                                 : French
Default                                  : No
Forced                                   : No

Text #12
ID                                       : 19
Format                                   : UTF-8
Codec ID                                 : S_TEXT/UTF8
Codec ID/Info                            : UTF-8 Plain Text
Duration                                 : 2 h 6 min
Bit rate                                 : 38 b/s
Count of elements                        : 1300
Stream size                              : 35.3 KiB (0%)
Title                                    : DDH - Galician [Full]
Language                                 : Galician
Default                                  : No
Forced                                   : No

Text #13
ID                                       : 20
Format                                   : UTF-8
Codec ID                                 : S_TEXT/UTF8
Codec ID/Info                            : UTF-8 Plain Text
Duration                                 : 2 h 6 min
Bit rate                                 : 94 b/s
Count of elements                        : 1272
Stream size                              : 87.1 KiB (0%)
Title                                    : DDH - Hebrew [Full]
Language                                 : Hebrew
Default                                  : No
Forced                                   : No

Text #14
ID                                       : 21
Format                                   : UTF-8
Codec ID                                 : S_TEXT/UTF8
Codec ID/Info                            : UTF-8 Plain Text
Duration                                 : 2 h 6 min
Bit rate                                 : 38 b/s
Count of elements                        : 1277
Stream size                              : 35.4 KiB (0%)
Title                                    : DDH - Croatian [Full]
Language                                 : Croatian
Default                                  : No
Forced                                   : No

Text #15
ID                                       : 22
Format                                   : UTF-8
Codec ID                                 : S_TEXT/UTF8
Codec ID/Info                            : UTF-8 Plain Text
Duration                                 : 2 h 6 min
Bit rate                                 : 73 b/s
Count of elements                        : 1271
Stream size                              : 68.3 KiB (0%)
Title                                    : DDH - Hungarian [Full]
Language                                 : Hungarian
Default                                  : No
Forced                                   : No

Text #16
ID                                       : 23
Format                                   : UTF-8
Codec ID                                 : S_TEXT/UTF8
Codec ID/Info                            : UTF-8 Plain Text
Duration                                 : 2 h 6 min
Bit rate                                 : 37 b/s
Count of elements                        : 1303
Stream size                              : 34.6 KiB (0%)
Title                                    : DDH - Indonesian [Full]
Language                                 : Indonesian
Default                                  : No
Forced                                   : No

Text #17
ID                                       : 24
Format                                   : UTF-8
Codec ID                                 : S_TEXT/UTF8
Codec ID/Info                            : UTF-8 Plain Text
Duration                                 : 1 h 56 min
Bit rate                                 : 41 b/s
Count of elements                        : 1275
Stream size                              : 35.2 KiB (0%)
Title                                    : DDH - Italian [Full]
Language                                 : Italian
Default                                  : No
Forced                                   : No

Text #18
ID                                       : 25
Format                                   : UTF-8
Codec ID                                 : S_TEXT/UTF8
Codec ID/Info                            : UTF-8 Plain Text
Duration                                 : 2 h 6 min
Bit rate                                 : 75 b/s
Count of elements                        : 1375
Stream size                              : 69.5 KiB (0%)
Title                                    : DDH - Japanese [Full]
Language                                 : Japanese
Default                                  : No
Forced                                   : No

Text #19
ID                                       : 26
Format                                   : UTF-8
Codec ID                                 : S_TEXT/UTF8
Codec ID/Info                            : UTF-8 Plain Text
Duration                                 : 2 h 6 min
Bit rate                                 : 76 b/s
Count of elements                        : 1305
Stream size                              : 70.5 KiB (0%)
Title                                    : DDH - Korean [Full]
Language                                 : Korean
Default                                  : No
Forced                                   : No

Text #20
ID                                       : 27
Format                                   : UTF-8
Codec ID                                 : S_TEXT/UTF8
Codec ID/Info                            : UTF-8 Plain Text
Duration                                 : 2 h 6 min
Bit rate                                 : 39 b/s
Count of elements                        : 1255
Stream size                              : 36.5 KiB (0%)
Title                                    : DDH - Malay (macrolanguage) [Full]
Language                                 : Malay
Default                                  : No
Forced                                   : No

Text #21
ID                                       : 28
Format                                   : UTF-8
Codec ID                                 : S_TEXT/UTF8
Codec ID/Info                            : UTF-8 Plain Text
Duration                                 : 2 h 6 min
Bit rate                                 : 35 b/s
Count of elements                        : 1083
Stream size                              : 32.6 KiB (0%)
Title                                    : DDH - Norwegian Bokmål [Full]
Language                                 : Norwegian Bokmal
Default                                  : No
Forced                                   : No

Text #22
ID                                       : 29
Format                                   : UTF-8
Codec ID                                 : S_TEXT/UTF8
Codec ID/Info                            : UTF-8 Plain Text
Duration                                 : 2 h 6 min
Bit rate                                 : 37 b/s
Count of elements                        : 1033
Stream size                              : 34.8 KiB (0%)
Title                                    : DDH - Dutch [Full]
Language                                 : Dutch
Default                                  : No
Forced                                   : No

Text #23
ID                                       : 30
Format                                   : UTF-8
Codec ID                                 : S_TEXT/UTF8
Codec ID/Info                            : UTF-8 Plain Text
Duration                                 : 2 h 6 min
Bit rate                                 : 39 b/s
Count of elements                        : 1269
Stream size                              : 36.0 KiB (0%)
Title                                    : DDH - Polish [Full]
Language                                 : Polish
Default                                  : No
Forced                                   : No

Text #24
ID                                       : 31
Format                                   : UTF-8
Codec ID                                 : S_TEXT/UTF8
Codec ID/Info                            : UTF-8 Plain Text
Duration                                 : 2 h 0 min
Bit rate                                 : 60 b/s
Count of elements                        : 1733
Stream size                              : 53.2 KiB (0%)
Title                                    : DDH - Portuguese [Full]
Language                                 : Portuguese
Default                                  : No
Forced                                   : No

Text #25
ID                                       : 32
Format                                   : UTF-8
Codec ID                                 : S_TEXT/UTF8
Codec ID/Info                            : UTF-8 Plain Text
Duration                                 : 2 h 6 min
Bit rate                                 : 46 b/s
Count of elements                        : 1210
Stream size                              : 42.8 KiB (0%)
Title                                    : DDH - Romanian [Full]
Language                                 : Romanian
Default                                  : No
Forced                                   : No

Text #26
ID                                       : 33
Format                                   : UTF-8
Codec ID                                 : S_TEXT/UTF8
Codec ID/Info                            : UTF-8 Plain Text
Duration                                 : 2 h 6 min
Bit rate                                 : 63 b/s
Count of elements                        : 1301
Stream size                              : 58.3 KiB (0%)
Title                                    : DDH - Russian [Full]
Language                                 : Russian
Default                                  : No
Forced                                   : No

Text #27
ID                                       : 34
Format                                   : UTF-8
Codec ID                                 : S_TEXT/UTF8
Codec ID/Info                            : UTF-8 Plain Text
Duration                                 : 2 h 6 min
Bit rate                                 : 37 b/s
Count of elements                        : 940
Stream size                              : 35.1 KiB (0%)
Title                                    : DDH - Swedish [Full]
Language                                 : Swedish
Default                                  : No
Forced                                   : No

Text #28
ID                                       : 35
Format                                   : UTF-8
Codec ID                                 : S_TEXT/UTF8
Codec ID/Info                            : UTF-8 Plain Text
Duration                                 : 2 h 6 min
Bit rate                                 : 118 b/s
Count of elements                        : 1311
Stream size                              : 109 KiB (0%)
Title                                    : DDH - Thai [Full]
Language                                 : Thai
Default                                  : No
Forced                                   : No

Text #29
ID                                       : 36
Format                                   : UTF-8
Codec ID                                 : S_TEXT/UTF8
Codec ID/Info                            : UTF-8 Plain Text
Duration                                 : 2 h 6 min
Bit rate                                 : 41 b/s
Count of elements                        : 1060
Stream size                              : 38.1 KiB (0%)
Title                                    : DDH - Turkish [Full]
Language                                 : Turkish
Default                                  : No
Forced                                   : No

Text #30
ID                                       : 37
Format                                   : UTF-8
Codec ID                                 : S_TEXT/UTF8
Codec ID/Info                            : UTF-8 Plain Text
Duration                                 : 2 h 6 min
Bit rate                                 : 65 b/s
Count of elements                        : 1278
Stream size                              : 60.0 KiB (0%)
Title                                    : DDH - Ukrainian [Full]
Language                                 : Ukrainian
Default                                  : No
Forced                                   : No

Text #31
ID                                       : 38
Format                                   : UTF-8
Codec ID                                 : S_TEXT/UTF8
Codec ID/Info                            : UTF-8 Plain Text
Duration                                 : 2 h 6 min
Bit rate                                 : 95 b/s
Count of elements                        : 1272
Stream size                              : 88.3 KiB (0%)
Title                                    : DDH - Vietnamese [Full]
Language                                 : Vietnamese
Default                                  : No
Forced                                   : No

Text #32
ID                                       : 39
Format                                   : UTF-8
Codec ID                                 : S_TEXT/UTF8
Codec ID/Info                            : UTF-8 Plain Text
Duration                                 : 2 h 6 min
Bit rate                                 : 103 b/s
Count of elements                        : 1348
Stream size                              : 95.6 KiB (0%)
Title                                    : DDH - Chinese [Full]
Language                                 : Chinese
Default                                  : No
Forced                                   : No

Text #33
ID                                       : 40
Format                                   : UTF-8
Codec ID                                 : S_TEXT/UTF8
Codec ID/Info                            : UTF-8 Plain Text
Duration                                 : 2 h 6 min
Bit rate                                 : 60 b/s
Count of elements                        : 1813
Stream size                              : 56.4 KiB (0%)
Title                                    : DDH - English [Full]
Language                                 : English
Default                                  : Yes
Forced                                   : No

Text #34
ID                                       : 41
Format                                   : UTF-8
Codec ID                                 : S_TEXT/UTF8
Codec ID/Info                            : UTF-8 Plain Text
Duration                                 : 2 h 5 min
Bit rate                                 : 1 b/s
Count of elements                        : 29
Stream size                              : 1.04 KiB (0%)
Title                                    : DDH - Czech
Language                                 : Czech
Default                                  : No
Forced                                   : Yes

Text #35
ID                                       : 42
Format                                   : UTF-8
Codec ID                                 : S_TEXT/UTF8
Codec ID/Info                            : UTF-8 Plain Text
Duration                                 : 2 h 5 min
Bit rate                                 : 0 b/s
Count of elements                        : 26
Stream size                              : 467 Bytes (0%)
Title                                    : DDH - German
Language                                 : German
Default                                  : No
Forced                                   : Yes

Text #36
ID                                       : 43
Format                                   : UTF-8
Codec ID                                 : S_TEXT/UTF8
Codec ID/Info                            : UTF-8 Plain Text
Duration                                 : 2 h 5 min
Bit rate                                 : 0 b/s
Count of elements                        : 23
Stream size                              : 430 Bytes (0%)
Title                                    : DDH - Spanish
Language                                 : Spanish
Default                                  : No
Forced                                   : Yes

Text #37
ID                                       : 44
Format                                   : UTF-8
Codec ID                                 : S_TEXT/UTF8
Codec ID/Info                            : UTF-8 Plain Text
Duration                                 : 2 h 3 min
Bit rate                                 : 0 b/s
Count of elements                        : 10
Stream size                              : 292 Bytes (0%)
Title                                    : DDH - Filipino
Language                                 : fil
Default                                  : No
Forced                                   : Yes

Text #38
ID                                       : 45
Format                                   : UTF-8
Codec ID                                 : S_TEXT/UTF8
Codec ID/Info                            : UTF-8 Plain Text
Duration                                 : 2 h 5 min
Bit rate                                 : 0 b/s
Count of elements                        : 28
Stream size                              : 510 Bytes (0%)
Title                                    : DDH - French
Language                                 : French
Default                                  : No
Forced                                   : Yes

Text #39
ID                                       : 46
Format                                   : UTF-8
Codec ID                                 : S_TEXT/UTF8
Codec ID/Info                            : UTF-8 Plain Text
Duration                                 : 1 h 52 min
Bit rate                                 : 0 b/s
Count of elements                        : 16
Stream size                              : 289 Bytes (0%)
Title                                    : DDH - Hindi
Language                                 : Hindi
Default                                  : No
Forced                                   : Yes

Text #40
ID                                       : 47
Format                                   : UTF-8
Codec ID                                 : S_TEXT/UTF8
Codec ID/Info                            : UTF-8 Plain Text
Duration                                 : 2 h 5 min
Bit rate                                 : 1 b/s
Count of elements                        : 27
Stream size                              : 1.19 KiB (0%)
Title                                    : DDH - Hungarian
Language                                 : Hungarian
Default                                  : No
Forced                                   : Yes

Text #41
ID                                       : 48
Format                                   : UTF-8
Codec ID                                 : S_TEXT/UTF8
Codec ID/Info                            : UTF-8 Plain Text
Duration                                 : 2 h 5 min
Bit rate                                 : 0 b/s
Count of elements                        : 22
Stream size                              : 454 Bytes (0%)
Title                                    : DDH - Indonesian
Language                                 : Indonesian
Default                                  : No
Forced                                   : Yes

Text #42
ID                                       : 49
Format                                   : UTF-8
Codec ID                                 : S_TEXT/UTF8
Codec ID/Info                            : UTF-8 Plain Text
Duration                                 : 2 h 5 min
Bit rate                                 : 0 b/s
Count of elements                        : 24
Stream size                              : 428 Bytes (0%)
Title                                    : DDH - Italian
Language                                 : Italian
Default                                  : No
Forced                                   : Yes

Text #43
ID                                       : 50
Format                                   : UTF-8
Codec ID                                 : S_TEXT/UTF8
Codec ID/Info                            : UTF-8 Plain Text
Duration                                 : 2 h 5 min
Bit rate                                 : 1 b/s
Count of elements                        : 37
Stream size                              : 1.69 KiB (0%)
Title                                    : DDH - Japanese
Language                                 : Japanese
Default                                  : No
Forced                                   : Yes

Text #44
ID                                       : 51
Format                                   : UTF-8
Codec ID                                 : S_TEXT/UTF8
Codec ID/Info                            : UTF-8 Plain Text
Duration                                 : 1 h 56 min
Bit rate                                 : 8 b/s
Count of elements                        : 105
Stream size                              : 6.92 KiB (0%)
Title                                    : DDH - Kannada
Language                                 : Kannada
Default                                  : No
Forced                                   : Yes

Text #45
ID                                       : 52
Format                                   : UTF-8
Codec ID                                 : S_TEXT/UTF8
Codec ID/Info                            : UTF-8 Plain Text
Bit rate                                 : 0 b/s
Count of elements                        : 0
Stream size                              : 0.00 Byte (0%)
Title                                    : DDH - Malayalam
Language                                 : Malayalam
Default                                  : No
Forced                                   : Yes

Text #46
ID                                       : 53
Format                                   : UTF-8
Codec ID                                 : S_TEXT/UTF8
Codec ID/Info                            : UTF-8 Plain Text
Duration                                 : 2 h 5 min
Bit rate                                 : 0 b/s
Count of elements                        : 28
Stream size                              : 502 Bytes (0%)
Title                                    : DDH - Polish
Language                                 : Polish
Default                                  : No
Forced                                   : Yes

Text #47
ID                                       : 54
Format                                   : UTF-8
Codec ID                                 : S_TEXT/UTF8
Codec ID/Info                            : UTF-8 Plain Text
Duration                                 : 2 h 5 min
Bit rate                                 : 0 b/s
Count of elements                        : 30
Stream size                              : 495 Bytes (0%)
Title                                    : DDH - Portuguese
Language                                 : Portuguese
Default                                  : No
Forced                                   : Yes

Text #48
ID                                       : 55
Format                                   : UTF-8
Codec ID                                 : S_TEXT/UTF8
Codec ID/Info                            : UTF-8 Plain Text
Duration                                 : 1 h 52 min
Bit rate                                 : 1 b/s
Count of elements                        : 34
Stream size                              : 1.42 KiB (0%)
Title                                    : DDH - Tamil
Language                                 : Tamil
Default                                  : No
Forced                                   : Yes

Text #49
ID                                       : 56
Format                                   : UTF-8
Codec ID                                 : S_TEXT/UTF8
Codec ID/Info                            : UTF-8 Plain Text
Duration                                 : 1 h 52 min
Bit rate                                 : 3 b/s
Count of elements                        : 62
Stream size                              : 2.80 KiB (0%)
Title                                    : DDH - Telugu
Language                                 : Telugu
Default                                  : No
Forced                                   : Yes

Text #50
ID                                       : 57
Format                                   : UTF-8
Codec ID                                 : S_TEXT/UTF8
Codec ID/Info                            : UTF-8 Plain Text
Duration                                 : 2 h 5 min
Bit rate                                 : 2 b/s
Count of elements                        : 37
Stream size                              : 2.17 KiB (0%)
Title                                    : DDH - Thai
Language                                 : Thai
Default                                  : No
Forced                                   : Yes

Text #51
ID                                       : 58
Format                                   : UTF-8
Codec ID                                 : S_TEXT/UTF8
Codec ID/Info                            : UTF-8 Plain Text
Duration                                 : 2 h 5 min
Bit rate                                 : 0 b/s
Count of elements                        : 29
Stream size                              : 550 Bytes (0%)
Title                                    : DDH - Turkish
Language                                 : Turkish
Default                                  : No
Forced                                   : Yes

Text #52
ID                                       : 59
Format                                   : UTF-8
Codec ID                                 : S_TEXT/UTF8
Codec ID/Info                            : UTF-8 Plain Text
Duration                                 : 2 h 5 min
Bit rate                                 : 1 b/s
Count of elements                        : 35
Stream size                              : 987 Bytes (0%)
Title                                    : DDH - Ukrainian
Language                                 : Ukrainian
Default                                  : No
Forced                                   : Yes


Readme/Password

Password & My Message