Fast Download Mirrors

Vikings: Valhalla (2022-) • TVSeries | E01-E08.1080p.NF.WEB-DL.x265.10bit.HDR/SDR.DDP5.1.Atmos.x264-TEPES

Vikings: Valhalla Action, Adventure, Drama, History, Romance, War | February 25, 2022 (United States) Summary: Follow-up series to 'Vikings' set 100 years afterward and centering on the adventures of Leif Erikson, Freydis, Harald Hardrada and the Norman King William the Conqueror.
Countries: United StatesLanguages: English

New money means no mercy as Mike Prince takes the Axe Capital throne. Chuck Rhoades is convinced no one should have that much wealth – or power. As all the players seek out new alliances only one thing’s for certain – wealth means war.

Mirrors: GDrive Index
Format: MKV
Credits: TEPES
Seasons: 1 Ongoing

Download

General
Unique ID                                : 86632495863976369391462879473955510407 (0x412CCFD1BDB19C18197CD052114C1887)
Complete name                            : Vikings.Valhalla.S01E01.The.Greenlanders.1080p.NF.WEB-DL.DDP5.1.Atmos.x264-TEPES.mkv
Format                                   : Matroska
Format version                           : Version 4
File size                                : 1.92 GiB
Duration                                 : 56 min 24 s
Overall bit rate mode                    : Variable
Overall bit rate                         : 4 869 kb/s
Writing application                      : mkvmerge v65.0.0 ('Too Much') 64-bit
Writing library                          : libebml v1.4.2 + libmatroska v1.6.4

Video
ID                                       : 1
Format                                   : AVC
Format/Info                              : Advanced Video Codec
Format profile                           : High@L4
Format settings                          : CABAC / 4 Ref Frames
Format settings, CABAC                   : Yes
Format settings, Reference frames        : 4 frames
Codec ID                                 : V_MPEG4/ISO/AVC
Duration                                 : 56 min 22 s
Bit rate mode                            : Variable
Bit rate                                 : 4 097 kb/s
Maximum bit rate                         : 20.0 Mb/s
Width                                    : 1 920 pixels
Height                                   : 1 080 pixels
Display aspect ratio                     : 16:9
Frame rate mode                          : Constant
Frame rate                               : 23.976 (24000/1001) FPS
Color space                              : YUV
Chroma subsampling                       : 4:2:0
Bit depth                                : 8 bits
Scan type                                : Progressive
Bits/(Pixel*Frame)                       : 0.082
Stream size                              : 1.61 GiB (84%)
Writing library                          : x264 core 148 r2727 7d026e8
Encoding settings                        : cabac=1 / ref=4 / deblock=1:0:0 / analyse=0x3:0x111 / me=umh / subme=10 / psy=1 / psy_rd=1.00:0.00 / mixed_ref=1 / me_range=120 / chroma_me=1 / trellis=2 / 8x8dct=1 / cqm=0 / deadzone=21,11 / fast_pskip=1 / chroma_qp_offset=-2 / threads=6 / lookahead_threads=1 / sliced_threads=0 / nr=0 / decimate=1 / interlaced=0 / bluray_compat=0 / stitchable=1 / constrained_intra=0 / bframes=16 / b_pyramid=2 / b_adapt=2 / b_bias=0 / direct=3 / weightb=1 / open_gop=0 / weightp=2 / keyint=240 / keyint_min=121 / scenecut=0 / intra_refresh=0 / rc_lookahead=240 / rc=crf / mbtree=1 / crf=19.0 / qcomp=0.50 / qpmin=6 / qpmax=51 / qpstep=4 / vbv_maxrate=20000 / vbv_bufsize=25000 / crf_max=0.0 / nal_hrd=vbr / filler=0 / ip_ratio=1.40 / aq=1:0.80
Default                                  : Yes
Forced                                   : No

Audio
ID                                       : 2
Format                                   : E-AC-3 JOC
Format/Info                              : Enhanced AC-3 with Joint Object Coding
Commercial name                          : Dolby Digital Plus with Dolby Atmos
Codec ID                                 : A_EAC3
Duration                                 : 56 min 24 s
Bit rate mode                            : Constant
Bit rate                                 : 768 kb/s
Channel(s)                               : 6 channels
Channel layout                           : L R C LFE Ls Rs
Sampling rate                            : 48.0 kHz
Frame rate                               : 31.250 FPS (1536 SPF)
Compression mode                         : Lossy
Stream size                              : 310 MiB (16%)
Language                                 : English
Service kind                             : Complete Main
Default                                  : Yes
Forced                                   : No
Complexity index                         : 16
Number of dynamic objects                : 15
Bed channel count                        : 1 channel
Bed channel configuration                : LFE

Text #1
ID                                       : 3
Format                                   : UTF-8
Codec ID                                 : S_TEXT/UTF8
Codec ID/Info                            : UTF-8 Plain Text
Duration                                 : 51 min 19 s
Bit rate                                 : 61 b/s
Count of elements                        : 519
Stream size                              : 23.0 KiB (0%)
Language                                 : English
Default                                  : No
Forced                                   : No

Text #2
ID                                       : 4
Format                                   : UTF-8
Codec ID                                 : S_TEXT/UTF8
Codec ID/Info                            : UTF-8 Plain Text
Duration                                 : 53 min 4 s
Bit rate                                 : 72 b/s
Count of elements                        : 668
Stream size                              : 28.1 KiB (0%)
Title                                    : SDH
Language                                 : English
Default                                  : No
Forced                                   : No

Text #3
ID                                       : 5
Format                                   : UTF-8
Codec ID                                 : S_TEXT/UTF8
Codec ID/Info                            : UTF-8 Plain Text
Duration                                 : 54 min 30 s
Bit rate                                 : 93 b/s
Count of elements                        : 552
Stream size                              : 37.5 KiB (0%)
Language                                 : Arabic
Default                                  : No
Forced                                   : No

Text #4
ID                                       : 6
Format                                   : UTF-8
Codec ID                                 : S_TEXT/UTF8
Codec ID/Info                            : UTF-8 Plain Text
Duration                                 : 54 min 30 s
Bit rate                                 : 59 b/s
Count of elements                        : 552
Stream size                              : 24.0 KiB (0%)
Language                                 : Czech
Default                                  : No
Forced                                   : No

Text #5
ID                                       : 7
Format                                   : UTF-8
Codec ID                                 : S_TEXT/UTF8
Codec ID/Info                            : UTF-8 Plain Text
Duration                                 : 54 min 30 s
Bit rate                                 : 58 b/s
Count of elements                        : 551
Stream size                              : 23.3 KiB (0%)
Language                                 : Danish
Default                                  : No
Forced                                   : No

Text #6
ID                                       : 8
Format                                   : UTF-8
Codec ID                                 : S_TEXT/UTF8
Codec ID/Info                            : UTF-8 Plain Text
Duration                                 : 54 min 30 s
Bit rate                                 : 61 b/s
Count of elements                        : 551
Stream size                              : 24.7 KiB (0%)
Language                                 : German
Default                                  : No
Forced                                   : No

Text #7
ID                                       : 9
Format                                   : UTF-8
Codec ID                                 : S_TEXT/UTF8
Codec ID/Info                            : UTF-8 Plain Text
Duration                                 : 54 min 30 s
Bit rate                                 : 109 b/s
Count of elements                        : 552
Stream size                              : 43.6 KiB (0%)
Language                                 : Greek
Default                                  : No
Forced                                   : No

Text #8
ID                                       : 10
Format                                   : UTF-8
Codec ID                                 : S_TEXT/UTF8
Codec ID/Info                            : UTF-8 Plain Text
Duration                                 : 54 min 30 s
Bit rate                                 : 61 b/s
Count of elements                        : 550
Stream size                              : 24.6 KiB (0%)
Language                                 : Spanish
Default                                  : No
Forced                                   : No

Text #9
ID                                       : 11
Format                                   : UTF-8
Codec ID                                 : S_TEXT/UTF8
Codec ID/Info                            : UTF-8 Plain Text
Duration                                 : 54 min 30 s
Bit rate                                 : 60 b/s
Count of elements                        : 552
Stream size                              : 24.2 KiB (0%)
Title                                    : European
Language                                 : Spanish
Default                                  : No
Forced                                   : No

Text #10
ID                                       : 12
Format                                   : UTF-8
Codec ID                                 : S_TEXT/UTF8
Codec ID/Info                            : UTF-8 Plain Text
Duration                                 : 54 min 30 s
Bit rate                                 : 58 b/s
Count of elements                        : 552
Stream size                              : 23.3 KiB (0%)
Language                                 : Finnish
Default                                  : No
Forced                                   : No

Text #11
ID                                       : 13
Format                                   : UTF-8
Codec ID                                 : S_TEXT/UTF8
Codec ID/Info                            : UTF-8 Plain Text
Duration                                 : 54 min 30 s
Bit rate                                 : 62 b/s
Count of elements                        : 545
Stream size                              : 25.0 KiB (0%)
Language                                 : French
Default                                  : No
Forced                                   : No

Text #12
ID                                       : 14
Format                                   : UTF-8
Codec ID                                 : S_TEXT/UTF8
Codec ID/Info                            : UTF-8 Plain Text
Duration                                 : 54 min 30 s
Bit rate                                 : 90 b/s
Count of elements                        : 552
Stream size                              : 36.2 KiB (0%)
Language                                 : Hebrew
Default                                  : No
Forced                                   : No

Text #13
ID                                       : 15
Format                                   : UTF-8
Codec ID                                 : S_TEXT/UTF8
Codec ID/Info                            : UTF-8 Plain Text
Duration                                 : 54 min 30 s
Bit rate                                 : 57 b/s
Count of elements                        : 550
Stream size                              : 23.1 KiB (0%)
Language                                 : Croatian
Default                                  : No
Forced                                   : No

Text #14
ID                                       : 16
Format                                   : UTF-8
Codec ID                                 : S_TEXT/UTF8
Codec ID/Info                            : UTF-8 Plain Text
Duration                                 : 54 min 30 s
Bit rate                                 : 61 b/s
Count of elements                        : 548
Stream size                              : 24.5 KiB (0%)
Language                                 : Hungarian
Default                                  : No
Forced                                   : No

Text #15
ID                                       : 17
Format                                   : UTF-8
Codec ID                                 : S_TEXT/UTF8
Codec ID/Info                            : UTF-8 Plain Text
Duration                                 : 54 min 30 s
Bit rate                                 : 60 b/s
Count of elements                        : 551
Stream size                              : 24.0 KiB (0%)
Language                                 : Indonesian
Default                                  : No
Forced                                   : No

Text #16
ID                                       : 18
Format                                   : UTF-8
Codec ID                                 : S_TEXT/UTF8
Codec ID/Info                            : UTF-8 Plain Text
Duration                                 : 54 min 30 s
Bit rate                                 : 60 b/s
Count of elements                        : 552
Stream size                              : 24.3 KiB (0%)
Language                                 : Italian
Default                                  : No
Forced                                   : No

Text #17
ID                                       : 19
Format                                   : UTF-8
Codec ID                                 : S_TEXT/UTF8
Codec ID/Info                            : UTF-8 Plain Text
Duration                                 : 54 min 30 s
Bit rate                                 : 68 b/s
Count of elements                        : 509
Stream size                              : 27.3 KiB (0%)
Language                                 : Japanese
Default                                  : No
Forced                                   : No

Text #18
ID                                       : 20
Format                                   : UTF-8
Codec ID                                 : S_TEXT/UTF8
Codec ID/Info                            : UTF-8 Plain Text
Duration                                 : 54 min 30 s
Bit rate                                 : 147 b/s
Count of elements                        : 552
Stream size                              : 58.8 KiB (0%)
Language                                 : Korean
Default                                  : No
Forced                                   : No

Text #19
ID                                       : 21
Format                                   : UTF-8
Codec ID                                 : S_TEXT/UTF8
Codec ID/Info                            : UTF-8 Plain Text
Duration                                 : 54 min 30 s
Bit rate                                 : 59 b/s
Count of elements                        : 550
Stream size                              : 23.9 KiB (0%)
Language                                 : Malay
Default                                  : No
Forced                                   : No

Text #20
ID                                       : 22
Format                                   : UTF-8
Codec ID                                 : S_TEXT/UTF8
Codec ID/Info                            : UTF-8 Plain Text
Duration                                 : 54 min 30 s
Bit rate                                 : 59 b/s
Count of elements                        : 551
Stream size                              : 23.6 KiB (0%)
Language                                 : Norwegian Bokmal
Default                                  : No
Forced                                   : No

Text #21
ID                                       : 23
Format                                   : UTF-8
Codec ID                                 : S_TEXT/UTF8
Codec ID/Info                            : UTF-8 Plain Text
Duration                                 : 54 min 30 s
Bit rate                                 : 58 b/s
Count of elements                        : 519
Stream size                              : 23.2 KiB (0%)
Language                                 : Dutch
Default                                  : No
Forced                                   : No

Text #22
ID                                       : 24
Format                                   : UTF-8
Codec ID                                 : S_TEXT/UTF8
Codec ID/Info                            : UTF-8 Plain Text
Duration                                 : 54 min 30 s
Bit rate                                 : 57 b/s
Count of elements                        : 551
Stream size                              : 23.0 KiB (0%)
Language                                 : Polish
Default                                  : No
Forced                                   : No

Text #23
ID                                       : 25
Format                                   : UTF-8
Codec ID                                 : S_TEXT/UTF8
Codec ID/Info                            : UTF-8 Plain Text
Duration                                 : 54 min 30 s
Bit rate                                 : 60 b/s
Count of elements                        : 552
Stream size                              : 24.3 KiB (0%)
Language                                 : Portuguese
Default                                  : No
Forced                                   : No

Text #24
ID                                       : 26
Format                                   : UTF-8
Codec ID                                 : S_TEXT/UTF8
Codec ID/Info                            : UTF-8 Plain Text
Duration                                 : 54 min 30 s
Bit rate                                 : 59 b/s
Count of elements                        : 552
Stream size                              : 23.7 KiB (0%)
Title                                    : Brazilian
Language                                 : Portuguese
Default                                  : No
Forced                                   : No

Text #25
ID                                       : 27
Format                                   : UTF-8
Codec ID                                 : S_TEXT/UTF8
Codec ID/Info                            : UTF-8 Plain Text
Duration                                 : 54 min 30 s
Bit rate                                 : 69 b/s
Count of elements                        : 552
Stream size                              : 27.9 KiB (0%)
Language                                 : Romanian
Default                                  : No
Forced                                   : No

Text #26
ID                                       : 28
Format                                   : UTF-8
Codec ID                                 : S_TEXT/UTF8
Codec ID/Info                            : UTF-8 Plain Text
Duration                                 : 54 min 30 s
Bit rate                                 : 170 b/s
Count of elements                        : 552
Stream size                              : 68.2 KiB (0%)
Language                                 : Russian
Default                                  : No
Forced                                   : No

Text #27
ID                                       : 29
Format                                   : UTF-8
Codec ID                                 : S_TEXT/UTF8
Codec ID/Info                            : UTF-8 Plain Text
Duration                                 : 54 min 30 s
Bit rate                                 : 60 b/s
Count of elements                        : 548
Stream size                              : 24.3 KiB (0%)
Language                                 : Swedish
Default                                  : No
Forced                                   : No

Text #28
ID                                       : 30
Format                                   : UTF-8
Codec ID                                 : S_TEXT/UTF8
Codec ID/Info                            : UTF-8 Plain Text
Duration                                 : 54 min 30 s
Bit rate                                 : 167 b/s
Count of elements                        : 552
Stream size                              : 66.9 KiB (0%)
Language                                 : Thai
Default                                  : No
Forced                                   : No

Text #29
ID                                       : 31
Format                                   : UTF-8
Codec ID                                 : S_TEXT/UTF8
Codec ID/Info                            : UTF-8 Plain Text
Duration                                 : 54 min 30 s
Bit rate                                 : 61 b/s
Count of elements                        : 552
Stream size                              : 24.5 KiB (0%)
Language                                 : Turkish
Default                                  : No
Forced                                   : No

Text #30
ID                                       : 32
Format                                   : UTF-8
Codec ID                                 : S_TEXT/UTF8
Codec ID/Info                            : UTF-8 Plain Text
Duration                                 : 54 min 30 s
Bit rate                                 : 104 b/s
Count of elements                        : 552
Stream size                              : 41.8 KiB (0%)
Language                                 : Ukrainian
Default                                  : No
Forced                                   : No

Text #31
ID                                       : 33
Format                                   : UTF-8
Codec ID                                 : S_TEXT/UTF8
Codec ID/Info                            : UTF-8 Plain Text
Duration                                 : 54 min 30 s
Bit rate                                 : 83 b/s
Count of elements                        : 551
Stream size                              : 33.3 KiB (0%)
Language                                 : Vietnamese
Default                                  : No
Forced                                   : No

Text #32
ID                                       : 34
Format                                   : UTF-8
Codec ID                                 : S_TEXT/UTF8
Codec ID/Info                            : UTF-8 Plain Text
Duration                                 : 54 min 30 s
Bit rate                                 : 70 b/s
Count of elements                        : 552
Stream size                              : 28.0 KiB (0%)
Title                                    : Simplified
Language                                 : Chinese
Default                                  : No
Forced                                   : No

Text #33
ID                                       : 35
Format                                   : UTF-8
Codec ID                                 : S_TEXT/UTF8
Codec ID/Info                            : UTF-8 Plain Text
Duration                                 : 54 min 30 s
Bit rate                                 : 134 b/s
Count of elements                        : 552
Stream size                              : 53.7 KiB (0%)
Title                                    : Traditional
Language                                 : Chinese
Default                                  : No
Forced                                   : No

Menu
00:53:11.000                             : en:Credits

General
Unique ID                                : 232887312656240576928014051559337844392 (0xAF3477046C818E18EDB47AC2BD5F5EA8)
Complete name                            : Vikings.Valhalla.S01E01.The.Greenlanders.1080p.NF.WEB-DL.DDP5.1.Atmos.HDR.HEVC-TEPES.mkv
Format                                   : Matroska
Format version                           : Version 4
File size                                : 2.41 GiB
Duration                                 : 56 min 24 s
Overall bit rate                         : 6 117 kb/s
Writing application                      : mkvmerge v65.0.0 ('Too Much') 64-bit
Writing library                          : libebml v1.4.2 + libmatroska v1.6.4

Video
ID                                       : 1
Format                                   : HEVC
Format/Info                              : High Efficiency Video Coding
Format profile                           : Main 10@L4@Main
HDR format                               : SMPTE ST 2086, HDR10 compatible
Codec ID                                 : V_MPEGH/ISO/HEVC
Duration                                 : 54 min 53 s
Bit rate                                 : 5 490 kb/s
Width                                    : 1 920 pixels
Height                                   : 1 080 pixels
Display aspect ratio                     : 16:9
Frame rate mode                          : Constant
Frame rate                               : 23.976 (24000/1001) FPS
Color space                              : YUV
Chroma subsampling                       : 4:2:0 (Type 2)
Bit depth                                : 10 bits
Bits/(Pixel*Frame)                       : 0.110
Stream size                              : 2.11 GiB (87%)
Default                                  : Yes
Forced                                   : No
Color range                              : Limited
Color primaries                          : BT.2020
Transfer characteristics                 : PQ
Matrix coefficients                      : BT.2020 non-constant
Mastering display color primaries        : Display P3
Mastering display luminance              : min: 0.0001 cd/m2, max: 1000 cd/m2
Maximum Content Light Level              : 1124 cd/m2
Maximum Frame-Average Light Level        : 129 cd/m2

Audio
ID                                       : 2
Format                                   : E-AC-3 JOC
Format/Info                              : Enhanced AC-3 with Joint Object Coding
Commercial name                          : Dolby Digital Plus with Dolby Atmos
Codec ID                                 : A_EAC3
Duration                                 : 56 min 24 s
Bit rate mode                            : Constant
Bit rate                                 : 768 kb/s
Channel(s)                               : 6 channels
Channel layout                           : L R C LFE Ls Rs
Sampling rate                            : 48.0 kHz
Frame rate                               : 31.250 FPS (1536 SPF)
Compression mode                         : Lossy
Stream size                              : 310 MiB (13%)
Language                                 : English
Service kind                             : Complete Main
Default                                  : Yes
Forced                                   : No
Complexity index                         : 16
Number of dynamic objects                : 15
Bed channel count                        : 1 channel
Bed channel configuration                : LFE

Text #1
ID                                       : 3
Format                                   : UTF-8
Codec ID                                 : S_TEXT/UTF8
Codec ID/Info                            : UTF-8 Plain Text
Duration                                 : 51 min 19 s
Bit rate                                 : 40 b/s
Count of elements                        : 519
Stream size                              : 15.2 KiB (0%)
Language                                 : English
Default                                  : No
Forced                                   : No

Text #2
ID                                       : 4
Format                                   : UTF-8
Codec ID                                 : S_TEXT/UTF8
Codec ID/Info                            : UTF-8 Plain Text
Duration                                 : 53 min 4 s
Bit rate                                 : 48 b/s
Count of elements                        : 668
Stream size                              : 18.8 KiB (0%)
Title                                    : SDH
Language                                 : English
Default                                  : No
Forced                                   : No

Text #3
ID                                       : 5
Format                                   : UTF-8
Codec ID                                 : S_TEXT/UTF8
Codec ID/Info                            : UTF-8 Plain Text
Duration                                 : 54 min 30 s
Bit rate                                 : 66 b/s
Count of elements                        : 552
Stream size                              : 26.5 KiB (0%)
Language                                 : Arabic
Default                                  : No
Forced                                   : No

Text #4
ID                                       : 6
Format                                   : UTF-8
Codec ID                                 : S_TEXT/UTF8
Codec ID/Info                            : UTF-8 Plain Text
Duration                                 : 54 min 30 s
Bit rate                                 : 36 b/s
Count of elements                        : 552
Stream size                              : 14.7 KiB (0%)
Language                                 : Czech
Default                                  : No
Forced                                   : No

Text #5
ID                                       : 7
Format                                   : UTF-8
Codec ID                                 : S_TEXT/UTF8
Codec ID/Info                            : UTF-8 Plain Text
Duration                                 : 54 min 30 s
Bit rate                                 : 36 b/s
Count of elements                        : 551
Stream size                              : 14.7 KiB (0%)
Language                                 : Danish
Default                                  : No
Forced                                   : No

Text #6
ID                                       : 8
Format                                   : UTF-8
Codec ID                                 : S_TEXT/UTF8
Codec ID/Info                            : UTF-8 Plain Text
Duration                                 : 54 min 30 s
Bit rate                                 : 39 b/s
Count of elements                        : 551
Stream size                              : 15.7 KiB (0%)
Language                                 : German
Default                                  : No
Forced                                   : No

Text #7
ID                                       : 9
Format                                   : UTF-8
Codec ID                                 : S_TEXT/UTF8
Codec ID/Info                            : UTF-8 Plain Text
Duration                                 : 54 min 30 s
Bit rate                                 : 70 b/s
Count of elements                        : 552
Stream size                              : 28.3 KiB (0%)
Language                                 : Greek
Default                                  : No
Forced                                   : No

Text #8
ID                                       : 10
Format                                   : UTF-8
Codec ID                                 : S_TEXT/UTF8
Codec ID/Info                            : UTF-8 Plain Text
Duration                                 : 54 min 30 s
Bit rate                                 : 39 b/s
Count of elements                        : 550
Stream size                              : 15.7 KiB (0%)
Language                                 : Spanish
Default                                  : No
Forced                                   : No

Text #9
ID                                       : 11
Format                                   : UTF-8
Codec ID                                 : S_TEXT/UTF8
Codec ID/Info                            : UTF-8 Plain Text
Duration                                 : 54 min 30 s
Bit rate                                 : 38 b/s
Count of elements                        : 552
Stream size                              : 15.4 KiB (0%)
Title                                    : European
Language                                 : Spanish
Default                                  : No
Forced                                   : No

Text #10
ID                                       : 12
Format                                   : UTF-8
Codec ID                                 : S_TEXT/UTF8
Codec ID/Info                            : UTF-8 Plain Text
Duration                                 : 54 min 30 s
Bit rate                                 : 36 b/s
Count of elements                        : 552
Stream size                              : 14.8 KiB (0%)
Language                                 : Finnish
Default                                  : No
Forced                                   : No

Text #11
ID                                       : 13
Format                                   : UTF-8
Codec ID                                 : S_TEXT/UTF8
Codec ID/Info                            : UTF-8 Plain Text
Duration                                 : 54 min 30 s
Bit rate                                 : 40 b/s
Count of elements                        : 545
Stream size                              : 16.0 KiB (0%)
Language                                 : French
Default                                  : No
Forced                                   : No

Text #12
ID                                       : 14
Format                                   : UTF-8
Codec ID                                 : S_TEXT/UTF8
Codec ID/Info                            : UTF-8 Plain Text
Duration                                 : 54 min 30 s
Bit rate                                 : 63 b/s
Count of elements                        : 552
Stream size                              : 25.3 KiB (0%)
Language                                 : Hebrew
Default                                  : No
Forced                                   : No

Text #13
ID                                       : 15
Format                                   : UTF-8
Codec ID                                 : S_TEXT/UTF8
Codec ID/Info                            : UTF-8 Plain Text
Duration                                 : 54 min 30 s
Bit rate                                 : 36 b/s
Count of elements                        : 550
Stream size                              : 14.5 KiB (0%)
Language                                 : Croatian
Default                                  : No
Forced                                   : No

Text #14
ID                                       : 16
Format                                   : UTF-8
Codec ID                                 : S_TEXT/UTF8
Codec ID/Info                            : UTF-8 Plain Text
Duration                                 : 54 min 30 s
Bit rate                                 : 37 b/s
Count of elements                        : 548
Stream size                              : 15.1 KiB (0%)
Language                                 : Hungarian
Default                                  : No
Forced                                   : No

Text #15
ID                                       : 17
Format                                   : UTF-8
Codec ID                                 : S_TEXT/UTF8
Codec ID/Info                            : UTF-8 Plain Text
Duration                                 : 54 min 30 s
Bit rate                                 : 37 b/s
Count of elements                        : 551
Stream size                              : 15.1 KiB (0%)
Language                                 : Indonesian
Default                                  : No
Forced                                   : No

Text #16
ID                                       : 18
Format                                   : UTF-8
Codec ID                                 : S_TEXT/UTF8
Codec ID/Info                            : UTF-8 Plain Text
Duration                                 : 54 min 30 s
Bit rate                                 : 38 b/s
Count of elements                        : 552
Stream size                              : 15.3 KiB (0%)
Language                                 : Italian
Default                                  : No
Forced                                   : No

Text #17
ID                                       : 19
Format                                   : UTF-8
Codec ID                                 : S_TEXT/UTF8
Codec ID/Info                            : UTF-8 Plain Text
Duration                                 : 54 min 30 s
Bit rate                                 : 42 b/s
Count of elements                        : 509
Stream size                              : 17.0 KiB (0%)
Language                                 : Japanese
Default                                  : No
Forced                                   : No

Text #18
ID                                       : 20
Format                                   : UTF-8
Codec ID                                 : S_TEXT/UTF8
Codec ID/Info                            : UTF-8 Plain Text
Duration                                 : 54 min 30 s
Bit rate                                 : 52 b/s
Count of elements                        : 552
Stream size                              : 21.1 KiB (0%)
Language                                 : Korean
Default                                  : No
Forced                                   : No

Text #19
ID                                       : 21
Format                                   : UTF-8
Codec ID                                 : S_TEXT/UTF8
Codec ID/Info                            : UTF-8 Plain Text
Duration                                 : 54 min 30 s
Bit rate                                 : 37 b/s
Count of elements                        : 550
Stream size                              : 15.1 KiB (0%)
Language                                 : Malay
Default                                  : No
Forced                                   : No

Text #20
ID                                       : 22
Format                                   : UTF-8
Codec ID                                 : S_TEXT/UTF8
Codec ID/Info                            : UTF-8 Plain Text
Duration                                 : 54 min 30 s
Bit rate                                 : 37 b/s
Count of elements                        : 551
Stream size                              : 14.9 KiB (0%)
Language                                 : Norwegian Bokmal
Default                                  : No
Forced                                   : No

Text #21
ID                                       : 23
Format                                   : UTF-8
Codec ID                                 : S_TEXT/UTF8
Codec ID/Info                            : UTF-8 Plain Text
Duration                                 : 54 min 30 s
Bit rate                                 : 36 b/s
Count of elements                        : 519
Stream size                              : 14.5 KiB (0%)
Language                                 : Dutch
Default                                  : No
Forced                                   : No

Text #22
ID                                       : 24
Format                                   : UTF-8
Codec ID                                 : S_TEXT/UTF8
Codec ID/Info                            : UTF-8 Plain Text
Duration                                 : 54 min 30 s
Bit rate                                 : 36 b/s
Count of elements                        : 551
Stream size                              : 14.4 KiB (0%)
Language                                 : Polish
Default                                  : No
Forced                                   : No

Text #23
ID                                       : 25
Format                                   : UTF-8
Codec ID                                 : S_TEXT/UTF8
Codec ID/Info                            : UTF-8 Plain Text
Duration                                 : 54 min 30 s
Bit rate                                 : 38 b/s
Count of elements                        : 552
Stream size                              : 15.5 KiB (0%)
Language                                 : Portuguese
Default                                  : No
Forced                                   : No

Text #24
ID                                       : 26
Format                                   : UTF-8
Codec ID                                 : S_TEXT/UTF8
Codec ID/Info                            : UTF-8 Plain Text
Duration                                 : 54 min 30 s
Bit rate                                 : 37 b/s
Count of elements                        : 552
Stream size                              : 15.0 KiB (0%)
Title                                    : Brazilian
Language                                 : Portuguese
Default                                  : No
Forced                                   : No

Text #25
ID                                       : 27
Format                                   : UTF-8
Codec ID                                 : S_TEXT/UTF8
Codec ID/Info                            : UTF-8 Plain Text
Duration                                 : 54 min 30 s
Bit rate                                 : 45 b/s
Count of elements                        : 552
Stream size                              : 18.3 KiB (0%)
Language                                 : Romanian
Default                                  : No
Forced                                   : No

Text #26
ID                                       : 28
Format                                   : UTF-8
Codec ID                                 : S_TEXT/UTF8
Codec ID/Info                            : UTF-8 Plain Text
Duration                                 : 54 min 30 s
Bit rate                                 : 64 b/s
Count of elements                        : 552
Stream size                              : 25.9 KiB (0%)
Language                                 : Russian
Default                                  : No
Forced                                   : No

Text #27
ID                                       : 29
Format                                   : UTF-8
Codec ID                                 : S_TEXT/UTF8
Codec ID/Info                            : UTF-8 Plain Text
Duration                                 : 54 min 30 s
Bit rate                                 : 38 b/s
Count of elements                        : 548
Stream size                              : 15.5 KiB (0%)
Language                                 : Swedish
Default                                  : No
Forced                                   : No

Text #28
ID                                       : 30
Format                                   : UTF-8
Codec ID                                 : S_TEXT/UTF8
Codec ID/Info                            : UTF-8 Plain Text
Duration                                 : 54 min 30 s
Bit rate                                 : 111 b/s
Count of elements                        : 552
Stream size                              : 44.7 KiB (0%)
Language                                 : Thai
Default                                  : No
Forced                                   : No

Text #29
ID                                       : 31
Format                                   : UTF-8
Codec ID                                 : S_TEXT/UTF8
Codec ID/Info                            : UTF-8 Plain Text
Duration                                 : 54 min 30 s
Bit rate                                 : 39 b/s
Count of elements                        : 552
Stream size                              : 15.6 KiB (0%)
Language                                 : Turkish
Default                                  : No
Forced                                   : No

Text #30
ID                                       : 32
Format                                   : UTF-8
Codec ID                                 : S_TEXT/UTF8
Codec ID/Info                            : UTF-8 Plain Text
Duration                                 : 54 min 30 s
Bit rate                                 : 67 b/s
Count of elements                        : 552
Stream size                              : 26.9 KiB (0%)
Language                                 : Ukrainian
Default                                  : No
Forced                                   : No

Text #31
ID                                       : 33
Format                                   : UTF-8
Codec ID                                 : S_TEXT/UTF8
Codec ID/Info                            : UTF-8 Plain Text
Duration                                 : 54 min 30 s
Bit rate                                 : 55 b/s
Count of elements                        : 551
Stream size                              : 22.1 KiB (0%)
Language                                 : Vietnamese
Default                                  : No
Forced                                   : No

Text #32
ID                                       : 34
Format                                   : UTF-8
Codec ID                                 : S_TEXT/UTF8
Codec ID/Info                            : UTF-8 Plain Text
Duration                                 : 54 min 30 s
Bit rate                                 : 43 b/s
Count of elements                        : 552
Stream size                              : 17.5 KiB (0%)
Title                                    : Simplified
Language                                 : Chinese
Default                                  : No
Forced                                   : No

Text #33
ID                                       : 35
Format                                   : UTF-8
Codec ID                                 : S_TEXT/UTF8
Codec ID/Info                            : UTF-8 Plain Text
Duration                                 : 54 min 30 s
Bit rate                                 : 43 b/s
Count of elements                        : 552
Stream size                              : 17.4 KiB (0%)
Title                                    : Traditional
Language                                 : Chinese
Default                                  : No
Forced                                   : No

Menu
00:53:11.000                             : en:Credits

General
Unique ID                                : 124027520894911887354372226972590815222 (0x5D4ED4E67CD6A7779544276B90C037F6)
Complete name                            : Vikings.Valhalla.S01E01.The.Greenlanders.1080p.NF.WEB-DL.DDP5.1.Atmos.HEVC-TEPES.mkv
Format                                   : Matroska
Format version                           : Version 4
File size                                : 2.49 GiB
Duration                                 : 56 min 24 s
Overall bit rate                         : 6 308 kb/s
Writing application                      : mkvmerge v65.0.0 ('Too Much') 64-bit
Writing library                          : libebml v1.4.2 + libmatroska v1.6.4

Video
ID                                       : 1
Format                                   : HEVC
Format/Info                              : High Efficiency Video Coding
Format profile                           : Main 10@L4@Main
Codec ID                                 : V_MPEGH/ISO/HEVC
Duration                                 : 56 min 24 s
Bit rate                                 : 5 535 kb/s
Width                                    : 1 920 pixels
Height                                   : 1 080 pixels
Display aspect ratio                     : 16:9
Frame rate mode                          : Constant
Frame rate                               : 23.976 (24000/1001) FPS
Color space                              : YUV
Chroma subsampling                       : 4:2:0
Bit depth                                : 10 bits
Bits/(Pixel*Frame)                       : 0.111
Stream size                              : 2.18 GiB (88%)
Default                                  : Yes
Forced                                   : No
Color range                              : Limited
Color primaries                          : BT.709
Transfer characteristics                 : BT.709
Matrix coefficients                      : BT.709

Audio
ID                                       : 2
Format                                   : E-AC-3 JOC
Format/Info                              : Enhanced AC-3 with Joint Object Coding
Commercial name                          : Dolby Digital Plus with Dolby Atmos
Codec ID                                 : A_EAC3
Duration                                 : 56 min 24 s
Bit rate mode                            : Constant
Bit rate                                 : 768 kb/s
Channel(s)                               : 6 channels
Channel layout                           : L R C LFE Ls Rs
Sampling rate                            : 48.0 kHz
Frame rate                               : 31.250 FPS (1536 SPF)
Compression mode                         : Lossy
Stream size                              : 310 MiB (12%)
Language                                 : English
Service kind                             : Complete Main
Default                                  : Yes
Forced                                   : No
Complexity index                         : 16
Number of dynamic objects                : 15
Bed channel count                        : 1 channel
Bed channel configuration                : LFE

Text #1
ID                                       : 3
Format                                   : UTF-8
Codec ID                                 : S_TEXT/UTF8
Codec ID/Info                            : UTF-8 Plain Text
Duration                                 : 51 min 19 s
Bit rate                                 : 40 b/s
Count of elements                        : 519
Stream size                              : 15.2 KiB (0%)
Language                                 : English
Default                                  : No
Forced                                   : No

Text #2
ID                                       : 4
Format                                   : UTF-8
Codec ID                                 : S_TEXT/UTF8
Codec ID/Info                            : UTF-8 Plain Text
Duration                                 : 53 min 4 s
Bit rate                                 : 48 b/s
Count of elements                        : 668
Stream size                              : 18.8 KiB (0%)
Title                                    : SDH
Language                                 : English
Default                                  : No
Forced                                   : No

Text #3
ID                                       : 5
Format                                   : UTF-8
Codec ID                                 : S_TEXT/UTF8
Codec ID/Info                            : UTF-8 Plain Text
Duration                                 : 54 min 30 s
Bit rate                                 : 66 b/s
Count of elements                        : 552
Stream size                              : 26.5 KiB (0%)
Language                                 : Arabic
Default                                  : No
Forced                                   : No

Text #4
ID                                       : 6
Format                                   : UTF-8
Codec ID                                 : S_TEXT/UTF8
Codec ID/Info                            : UTF-8 Plain Text
Duration                                 : 54 min 30 s
Bit rate                                 : 36 b/s
Count of elements                        : 552
Stream size                              : 14.7 KiB (0%)
Language                                 : Czech
Default                                  : No
Forced                                   : No

Text #5
ID                                       : 7
Format                                   : UTF-8
Codec ID                                 : S_TEXT/UTF8
Codec ID/Info                            : UTF-8 Plain Text
Duration                                 : 54 min 30 s
Bit rate                                 : 36 b/s
Count of elements                        : 551
Stream size                              : 14.7 KiB (0%)
Language                                 : Danish
Default                                  : No
Forced                                   : No

Text #6
ID                                       : 8
Format                                   : UTF-8
Codec ID                                 : S_TEXT/UTF8
Codec ID/Info                            : UTF-8 Plain Text
Duration                                 : 54 min 30 s
Bit rate                                 : 39 b/s
Count of elements                        : 551
Stream size                              : 15.7 KiB (0%)
Language                                 : German
Default                                  : No
Forced                                   : No

Text #7
ID                                       : 9
Format                                   : UTF-8
Codec ID                                 : S_TEXT/UTF8
Codec ID/Info                            : UTF-8 Plain Text
Duration                                 : 54 min 30 s
Bit rate                                 : 70 b/s
Count of elements                        : 552
Stream size                              : 28.3 KiB (0%)
Language                                 : Greek
Default                                  : No
Forced                                   : No

Text #8
ID                                       : 10
Format                                   : UTF-8
Codec ID                                 : S_TEXT/UTF8
Codec ID/Info                            : UTF-8 Plain Text
Duration                                 : 54 min 30 s
Bit rate                                 : 39 b/s
Count of elements                        : 550
Stream size                              : 15.7 KiB (0%)
Language                                 : Spanish
Default                                  : No
Forced                                   : No

Text #9
ID                                       : 11
Format                                   : UTF-8
Codec ID                                 : S_TEXT/UTF8
Codec ID/Info                            : UTF-8 Plain Text
Duration                                 : 54 min 30 s
Bit rate                                 : 38 b/s
Count of elements                        : 552
Stream size                              : 15.4 KiB (0%)
Title                                    : European
Language                                 : Spanish
Default                                  : No
Forced                                   : No

Text #10
ID                                       : 12
Format                                   : UTF-8
Codec ID                                 : S_TEXT/UTF8
Codec ID/Info                            : UTF-8 Plain Text
Duration                                 : 54 min 30 s
Bit rate                                 : 36 b/s
Count of elements                        : 552
Stream size                              : 14.8 KiB (0%)
Language                                 : Finnish
Default                                  : No
Forced                                   : No

Text #11
ID                                       : 13
Format                                   : UTF-8
Codec ID                                 : S_TEXT/UTF8
Codec ID/Info                            : UTF-8 Plain Text
Duration                                 : 54 min 30 s
Bit rate                                 : 40 b/s
Count of elements                        : 545
Stream size                              : 16.0 KiB (0%)
Language                                 : French
Default                                  : No
Forced                                   : No

Text #12
ID                                       : 14
Format                                   : UTF-8
Codec ID                                 : S_TEXT/UTF8
Codec ID/Info                            : UTF-8 Plain Text
Duration                                 : 54 min 30 s
Bit rate                                 : 63 b/s
Count of elements                        : 552
Stream size                              : 25.3 KiB (0%)
Language                                 : Hebrew
Default                                  : No
Forced                                   : No

Text #13
ID                                       : 15
Format                                   : UTF-8
Codec ID                                 : S_TEXT/UTF8
Codec ID/Info                            : UTF-8 Plain Text
Duration                                 : 54 min 30 s
Bit rate                                 : 36 b/s
Count of elements                        : 550
Stream size                              : 14.5 KiB (0%)
Language                                 : Croatian
Default                                  : No
Forced                                   : No

Text #14
ID                                       : 16
Format                                   : UTF-8
Codec ID                                 : S_TEXT/UTF8
Codec ID/Info                            : UTF-8 Plain Text
Duration                                 : 54 min 30 s
Bit rate                                 : 37 b/s
Count of elements                        : 548
Stream size                              : 15.1 KiB (0%)
Language                                 : Hungarian
Default                                  : No
Forced                                   : No

Text #15
ID                                       : 17
Format                                   : UTF-8
Codec ID                                 : S_TEXT/UTF8
Codec ID/Info                            : UTF-8 Plain Text
Duration                                 : 54 min 30 s
Bit rate                                 : 37 b/s
Count of elements                        : 551
Stream size                              : 15.1 KiB (0%)
Language                                 : Indonesian
Default                                  : No
Forced                                   : No

Text #16
ID                                       : 18
Format                                   : UTF-8
Codec ID                                 : S_TEXT/UTF8
Codec ID/Info                            : UTF-8 Plain Text
Duration                                 : 54 min 30 s
Bit rate                                 : 38 b/s
Count of elements                        : 552
Stream size                              : 15.3 KiB (0%)
Language                                 : Italian
Default                                  : No
Forced                                   : No

Text #17
ID                                       : 19
Format                                   : UTF-8
Codec ID                                 : S_TEXT/UTF8
Codec ID/Info                            : UTF-8 Plain Text
Duration                                 : 54 min 30 s
Bit rate                                 : 42 b/s
Count of elements                        : 509
Stream size                              : 17.0 KiB (0%)
Language                                 : Japanese
Default                                  : No
Forced                                   : No

Text #18
ID                                       : 20
Format                                   : UTF-8
Codec ID                                 : S_TEXT/UTF8
Codec ID/Info                            : UTF-8 Plain Text
Duration                                 : 54 min 30 s
Bit rate                                 : 52 b/s
Count of elements                        : 552
Stream size                              : 21.1 KiB (0%)
Language                                 : Korean
Default                                  : No
Forced                                   : No

Text #19
ID                                       : 21
Format                                   : UTF-8
Codec ID                                 : S_TEXT/UTF8
Codec ID/Info                            : UTF-8 Plain Text
Duration                                 : 54 min 30 s
Bit rate                                 : 37 b/s
Count of elements                        : 550
Stream size                              : 15.1 KiB (0%)
Language                                 : Malay
Default                                  : No
Forced                                   : No

Text #20
ID                                       : 22
Format                                   : UTF-8
Codec ID                                 : S_TEXT/UTF8
Codec ID/Info                            : UTF-8 Plain Text
Duration                                 : 54 min 30 s
Bit rate                                 : 37 b/s
Count of elements                        : 551
Stream size                              : 14.9 KiB (0%)
Language                                 : Norwegian Bokmal
Default                                  : No
Forced                                   : No

Text #21
ID                                       : 23
Format                                   : UTF-8
Codec ID                                 : S_TEXT/UTF8
Codec ID/Info                            : UTF-8 Plain Text
Duration                                 : 54 min 30 s
Bit rate                                 : 36 b/s
Count of elements                        : 519
Stream size                              : 14.5 KiB (0%)
Language                                 : Dutch
Default                                  : No
Forced                                   : No

Text #22
ID                                       : 24
Format                                   : UTF-8
Codec ID                                 : S_TEXT/UTF8
Codec ID/Info                            : UTF-8 Plain Text
Duration                                 : 54 min 30 s
Bit rate                                 : 36 b/s
Count of elements                        : 551
Stream size                              : 14.4 KiB (0%)
Language                                 : Polish
Default                                  : No
Forced                                   : No

Text #23
ID                                       : 25
Format                                   : UTF-8
Codec ID                                 : S_TEXT/UTF8
Codec ID/Info                            : UTF-8 Plain Text
Duration                                 : 54 min 30 s
Bit rate                                 : 38 b/s
Count of elements                        : 552
Stream size                              : 15.5 KiB (0%)
Language                                 : Portuguese
Default                                  : No
Forced                                   : No

Text #24
ID                                       : 26
Format                                   : UTF-8
Codec ID                                 : S_TEXT/UTF8
Codec ID/Info                            : UTF-8 Plain Text
Duration                                 : 54 min 30 s
Bit rate                                 : 37 b/s
Count of elements                        : 552
Stream size                              : 15.0 KiB (0%)
Title                                    : Brazilian
Language                                 : Portuguese
Default                                  : No
Forced                                   : No

Text #25
ID                                       : 27
Format                                   : UTF-8
Codec ID                                 : S_TEXT/UTF8
Codec ID/Info                            : UTF-8 Plain Text
Duration                                 : 54 min 30 s
Bit rate                                 : 45 b/s
Count of elements                        : 552
Stream size                              : 18.3 KiB (0%)
Language                                 : Romanian
Default                                  : No
Forced                                   : No

Text #26
ID                                       : 28
Format                                   : UTF-8
Codec ID                                 : S_TEXT/UTF8
Codec ID/Info                            : UTF-8 Plain Text
Duration                                 : 54 min 30 s
Bit rate                                 : 64 b/s
Count of elements                        : 552
Stream size                              : 25.9 KiB (0%)
Language                                 : Russian
Default                                  : No
Forced                                   : No

Text #27
ID                                       : 29
Format                                   : UTF-8
Codec ID                                 : S_TEXT/UTF8
Codec ID/Info                            : UTF-8 Plain Text
Duration                                 : 54 min 30 s
Bit rate                                 : 38 b/s
Count of elements                        : 548
Stream size                              : 15.5 KiB (0%)
Language                                 : Swedish
Default                                  : No
Forced                                   : No

Text #28
ID                                       : 30
Format                                   : UTF-8
Codec ID                                 : S_TEXT/UTF8
Codec ID/Info                            : UTF-8 Plain Text
Duration                                 : 54 min 30 s
Bit rate                                 : 111 b/s
Count of elements                        : 552
Stream size                              : 44.7 KiB (0%)
Language                                 : Thai
Default                                  : No
Forced                                   : No

Text #29
ID                                       : 31
Format                                   : UTF-8
Codec ID                                 : S_TEXT/UTF8
Codec ID/Info                            : UTF-8 Plain Text
Duration                                 : 54 min 30 s
Bit rate                                 : 39 b/s
Count of elements                        : 552
Stream size                              : 15.6 KiB (0%)
Language                                 : Turkish
Default                                  : No
Forced                                   : No

Text #30
ID                                       : 32
Format                                   : UTF-8
Codec ID                                 : S_TEXT/UTF8
Codec ID/Info                            : UTF-8 Plain Text
Duration                                 : 54 min 30 s
Bit rate                                 : 67 b/s
Count of elements                        : 552
Stream size                              : 26.9 KiB (0%)
Language                                 : Ukrainian
Default                                  : No
Forced                                   : No

Text #31
ID                                       : 33
Format                                   : UTF-8
Codec ID                                 : S_TEXT/UTF8
Codec ID/Info                            : UTF-8 Plain Text
Duration                                 : 54 min 30 s
Bit rate                                 : 55 b/s
Count of elements                        : 551
Stream size                              : 22.1 KiB (0%)
Language                                 : Vietnamese
Default                                  : No
Forced                                   : No

Text #32
ID                                       : 34
Format                                   : UTF-8
Codec ID                                 : S_TEXT/UTF8
Codec ID/Info                            : UTF-8 Plain Text
Duration                                 : 54 min 30 s
Bit rate                                 : 43 b/s
Count of elements                        : 552
Stream size                              : 17.5 KiB (0%)
Title                                    : Simplified
Language                                 : Chinese
Default                                  : No
Forced                                   : No

Text #33
ID                                       : 35
Format                                   : UTF-8
Codec ID                                 : S_TEXT/UTF8
Codec ID/Info                            : UTF-8 Plain Text
Duration                                 : 54 min 30 s
Bit rate                                 : 43 b/s
Count of elements                        : 552
Stream size                              : 17.4 KiB (0%)
Title                                    : Traditional
Language                                 : Chinese
Default                                  : No
Forced                                   : No

Menu
00:53:11.000                             : en:Credits

Readme/Password

Password & My Message