Fast Download Mirrors

Arcane (2021-) • TVSeries | S01.E1-E6.1080p.NF.WEB-DL.DDP5.1.x264-SPECT3R [7.48 GB]

Arcane (2021-)
Arcane Animation, Action, Adventure, Drama, Fantasy, Sci-Fi | November 6, 2021 (United States) Summary: Set in utopian Piltover and the oppressed underground of Zaun, the story follows the origins of two iconic League champions-and the power that will tear them apart.
Countries: United StatesLanguages: English

Amid the stark discord of twin cities Piltover and Zaun, two sisters fight on rival sides of a war between magic technologies and clashing convictions.

Mirrors: MirrorAce, MultiUp, Gdrive[GDTOT, Sharer]
Format: MKV
Credits: SPECT3R
Seasons-1 On-Going

Download

Arcane.S01E01.Welcome.to.the.Playground.1080p.NF.WEB-DL.DDP5.1.x264-SPECT3R.mkv
Arcane.S01E02.Some.Mysteries.Are.Better.Left.Unsolved.1080p.NF.WEB-DL.DDP5.1.x264-SPECT3R.mkv
Arcane.S01E06.When.These.Walls.Come.Tumbling.Down.1080p.NF.WEB-DL.DDP5.1.x264-SPECT3R.mkv
Arcane.S01E04.Happy.Progress.Day!.1080p.NF.WEB-DL.DDP5.1.x264-SPECT3R.mkv
Arcane.S01E05.Everybody.Wants.to.Be.My.Enemy.1080p.NF.WEB-DL.DDP5.1.x264-SPECT3R.mkv
Arcane.S01E03.the.Base.Violence.Necessary.for.Change.1080p.NF.WEB-DL.DDP5.1.x264-SPECT3R.mkv

https://multiup.org/5b04fb1cb3d2a85a4c9e8dca18cfafd2
https://multiup.org/47d77c3aaf7fee6f2c6e74af729a8fd9
https://multiup.org/c78b5e188f87892cd25182839fd2262e
https://multiup.org/8c6e9503d7485d00c46d722b722bf8f0
https://multiup.org/078e5efa4d21281788fc158a317c2a52
https://multiup.org/866f5dc03ad7160870ad0b0987fbf42d

https://mirrorace.org/m/3LLij
https://mirrorace.org/m/35NQ0
https://mirrorace.org/m/35NQ1
https://mirrorace.org/m/35NQ2
https://mirrorace.org/m/35NQ3
https://mirrorace.org/m/35NQ5

https://new.gdtot.top/file/1049516336
https://new.gdtot.top/file/1304678510
https://new.gdtot.top/file/1953877408
https://new.gdtot.top/file/925535888
https://new.gdtot.top/file/1180223549
https://new.gdtot.top/file/1618306092

https://gadrive.com/file/1049516336
https://gadrive.com/file/1304678510
https://gadrive.com/file/1953877408
https://gadrive.com/file/925535888
https://gadrive.com/file/1180223549
https://gadrive.com/file/1618306092

https://sharer.pw/file/ME_viwLAvWY5
https://sharer.pw/file/ttv2RF7EydDE
https://sharer.pw/file/ZwL6Trn7VVfP
https://sharer.pw/file/wdWkzFR19WOX
https://sharer.pw/file/UlqqXhTye5wy
https://sharer.pw/file/D_ySu82ZzJPM
Complete name : Arcane.S01E01.Welcome.to.the.Playground.1080p.NF.WEB-DL.DDP5.1.x264-SPECT3R.mkv
Format : Matroska
Format version : Version 4
File size : 1 001 MiB
Duration : 43 min 25 s
Overall bit rate mode : Variable
Overall bit rate : 3 222 kb/s
Encoded date : UTC 2021-11-13 08:08:00
Writing application : mkvmerge v61.0.0 ('So') 64-bit
Writing library : libebml v1.4.2 + libmatroska v1.6.4

Video
ID : 1
Format : AVC
Format/Info : Advanced Video Codec
Format profile : High@L4
Format settings : CABAC / 4 Ref Frames
Format settings, CABAC : Yes
Format settings, Reference frames : 4 frames
Codec ID : V_MPEG4/ISO/AVC
Duration : 43 min 23 s
Bit rate mode : Variable
Bit rate : 2 580 kb/s
Maximum bit rate : 20.0 Mb/s
Width : 1 920 pixels
Height : 1 080 pixels
Display aspect ratio : 16:9
Frame rate mode : Constant
Frame rate : 24.000 FPS
Color space : YUV
Chroma subsampling : 4:2:0
Bit depth : 8 bits
Scan type : Progressive
Bits/(Pixel*Frame) : 0.052
Stream size : 801 MiB (80%)
Writing library : x264 core 148 r2724 dbe0335
Encoding settings : cabac=1 / ref=4 / deblock=1:0:0 / analyse=0x3:0x111 / me=umh / subme=10 / psy=1 / psy_rd=1.00:0.00 / mixed_ref=1 / me_range=120 / chroma_me=1 / trellis=2 / 8x8dct=1 / cqm=0 / deadzone=21,11 / fast_pskip=1 / chroma_qp_offset=-2 / threads=8 / lookahead_threads=2 / sliced_threads=0 / nr=0 / decimate=1 / interlaced=0 / bluray_compat=0 / stitchable=1 / constrained_intra=0 / bframes=16 / b_pyramid=2 / b_adapt=2 / b_bias=0 / direct=3 / weightb=1 / open_gop=0 / weightp=2 / keyint=240 / keyint_min=121 / scenecut=0 / intra_refresh=0 / rc_lookahead=240 / rc=crf / mbtree=1 / crf=19.0 / qcomp=0.50 / qpmin=6 / qpmax=51 / qpstep=4 / vbv_maxrate=20000 / vbv_bufsize=25000 / crf_max=0.0 / nal_hrd=vbr / filler=0 / ip_ratio=1.40 / aq=1:0.80
Default : Yes
Forced : No

Audio
ID : 2
Format : E-AC-3
Format/Info : Enhanced AC-3
Commercial name : Dolby Digital Plus
Codec ID : A_EAC3
Duration : 43 min 25 s
Bit rate mode : Constant
Bit rate : 640 kb/s
Channel(s) : 6 channels
Channel layout : L R C LFE Ls Rs
Sampling rate : 48.0 kHz
Frame rate : 31.250 FPS (1536 SPF)
Compression mode : Lossy
Stream size : 199 MiB (20%)
Title : English
Language : English
Service kind : Complete Main
Default : Yes
Forced : No

Text #1
ID : 3
Format : UTF-8
Codec ID : S_TEXT/UTF8
Codec ID/Info : UTF-8 Plain Text
Duration : 41 min 22 s
Bit rate : 63 b/s
Count of elements : 686
Stream size : 19.3 KiB (0%)
Title : English
Language : English
Default : Yes
Forced : No

Text #2
ID : 4
Format : UTF-8
Codec ID : S_TEXT/UTF8
Codec ID/Info : UTF-8 Plain Text
Duration : 41 min 30 s
Bit rate : 65 b/s
Count of elements : 364
Stream size : 19.8 KiB (0%)
Title : Arabic
Language : Arabic
Default : No
Forced : No

Text #3
ID : 5
Format : UTF-8
Codec ID : S_TEXT/UTF8
Codec ID/Info : UTF-8 Plain Text
Duration : 41 min 30 s
Bit rate : 44 b/s
Count of elements : 382
Stream size : 13.6 KiB (0%)
Title : Chinese Simplified
Language : Chinese
Default : No
Forced : No

Text #4
ID : 6
Format : UTF-8
Codec ID : S_TEXT/UTF8
Codec ID/Info : UTF-8 Plain Text
Duration : 41 min 32 s
Bit rate : 46 b/s
Count of elements : 379
Stream size : 14.1 KiB (0%)
Title : Chinese Traditional
Language : Chinese
Default : No
Forced : No

Text #5
ID : 7
Format : UTF-8
Codec ID : S_TEXT/UTF8
Codec ID/Info : UTF-8 Plain Text
Duration : 41 min 30 s
Bit rate : 37 b/s
Count of elements : 364
Stream size : 11.4 KiB (0%)
Title : Croatian
Language : Croatian
Default : No
Forced : No

Text #6
ID : 8
Format : UTF-8
Codec ID : S_TEXT/UTF8
Codec ID/Info : UTF-8 Plain Text
Duration : 41 min 30 s
Bit rate : 38 b/s
Count of elements : 364
Stream size : 11.8 KiB (0%)
Title : Czech
Language : Czech
Default : No
Forced : No

Text #7
ID : 9
Format : UTF-8
Codec ID : S_TEXT/UTF8
Codec ID/Info : UTF-8 Plain Text
Duration : 41 min 30 s
Bit rate : 39 b/s
Count of elements : 363
Stream size : 11.9 KiB (0%)
Title : Danish
Language : Danish
Default : No
Forced : No

Text #8
ID : 10
Format : UTF-8
Codec ID : S_TEXT/UTF8
Codec ID/Info : UTF-8 Plain Text
Duration : 41 min 30 s
Bit rate : 39 b/s
Count of elements : 363
Stream size : 12.0 KiB (0%)
Title : Dutch
Language : Dutch
Default : No
Forced : No

Text #9
ID : 11
Format : UTF-8
Codec ID : S_TEXT/UTF8
Codec ID/Info : UTF-8 Plain Text
Duration : 41 min 29 s
Bit rate : 39 b/s
Count of elements : 364
Stream size : 11.9 KiB (0%)
Title : Finnish
Language : Finnish
Default : No
Forced : No

Text #10
ID : 12
Format : UTF-8
Codec ID : S_TEXT/UTF8
Codec ID/Info : UTF-8 Plain Text
Duration : 41 min 32 s
Bit rate : 44 b/s
Count of elements : 362
Stream size : 13.5 KiB (0%)
Title : French
Language : French
Default : No
Forced : No

Text #11
ID : 13
Format : UTF-8
Codec ID : S_TEXT/UTF8
Codec ID/Info : UTF-8 Plain Text
Duration : 41 min 30 s
Bit rate : 44 b/s
Count of elements : 359
Stream size : 13.6 KiB (0%)
Title : German
Language : German
Default : No
Forced : No

Text #12
ID : 14
Format : UTF-8
Codec ID : S_TEXT/UTF8
Codec ID/Info : UTF-8 Plain Text
Duration : 41 min 30 s
Bit rate : 74 b/s
Count of elements : 364
Stream size : 22.5 KiB (0%)
Title : Greek
Language : Greek
Default : No
Forced : No

Text #13
ID : 15
Format : UTF-8
Codec ID : S_TEXT/UTF8
Codec ID/Info : UTF-8 Plain Text
Duration : 41 min 30 s
Bit rate : 60 b/s
Count of elements : 364
Stream size : 18.4 KiB (0%)
Title : Hebrew
Language : Hebrew
Default : No
Forced : No

Text #14
ID : 16
Format : UTF-8
Codec ID : S_TEXT/UTF8
Codec ID/Info : UTF-8 Plain Text
Duration : 41 min 30 s
Bit rate : 41 b/s
Count of elements : 364
Stream size : 12.5 KiB (0%)
Title : Hungarian
Language : Hungarian
Default : No
Forced : No

Text #15
ID : 17
Format : UTF-8
Codec ID : S_TEXT/UTF8
Codec ID/Info : UTF-8 Plain Text
Duration : 41 min 32 s
Bit rate : 43 b/s
Count of elements : 461
Stream size : 13.1 KiB (0%)
Title : Indonesian
Language : Indonesian
Default : No
Forced : No

Text #16
ID : 18
Format : UTF-8
Codec ID : S_TEXT/UTF8
Codec ID/Info : UTF-8 Plain Text
Duration : 41 min 30 s
Bit rate : 40 b/s
Count of elements : 363
Stream size : 12.3 KiB (0%)
Title : Italian
Language : Italian
Default : No
Forced : No

Text #17
ID : 19
Format : UTF-8
Codec ID : S_TEXT/UTF8
Codec ID/Info : UTF-8 Plain Text
Duration : 39 min 30 s
Bit rate : 38 b/s
Count of elements : 407
Stream size : 11.1 KiB (0%)
Title : Japanese
Language : Japanese
Default : No
Forced : No

Text #18
ID : 20
Format : UTF-8
Codec ID : S_TEXT/UTF8
Codec ID/Info : UTF-8 Plain Text
Duration : 39 min 30 s
Bit rate : 55 b/s
Count of elements : 392
Stream size : 16.0 KiB (0%)
Title : Korean
Language : Korean
Default : No
Forced : No

Text #19
ID : 21
Format : UTF-8
Codec ID : S_TEXT/UTF8
Codec ID/Info : UTF-8 Plain Text
Duration : 41 min 32 s
Bit rate : 40 b/s
Count of elements : 368
Stream size : 12.4 KiB (0%)
Title : Malay
Language : Malay
Default : No
Forced : No

Text #20
ID : 22
Format : UTF-8
Codec ID : S_TEXT/UTF8
Codec ID/Info : UTF-8 Plain Text
Duration : 41 min 30 s
Bit rate : 39 b/s
Count of elements : 362
Stream size : 11.9 KiB (0%)
Title : Norwegian Bokmal
Language : Norwegian Bokmal
Default : No
Forced : No

Text #21
ID : 23
Format : UTF-8
Codec ID : S_TEXT/UTF8
Codec ID/Info : UTF-8 Plain Text
Duration : 41 min 30 s
Bit rate : 38 b/s
Count of elements : 364
Stream size : 11.7 KiB (0%)
Title : Polish
Language : Polish
Default : No
Forced : No

Text #22
ID : 24
Format : UTF-8
Codec ID : S_TEXT/UTF8
Codec ID/Info : UTF-8 Plain Text
Duration : 41 min 30 s
Bit rate : 41 b/s
Count of elements : 362
Stream size : 12.5 KiB (0%)
Title : Portuguese
Language : Portuguese
Default : No
Forced : No

Text #23
ID : 25
Format : UTF-8
Codec ID : S_TEXT/UTF8
Codec ID/Info : UTF-8 Plain Text
Duration : 41 min 30 s
Bit rate : 41 b/s
Count of elements : 364
Stream size : 12.7 KiB (0%)
Title : Brazilian Portuguese
Language : Portuguese
Default : No
Forced : No

Text #24
ID : 26
Format : UTF-8
Codec ID : S_TEXT/UTF8
Codec ID/Info : UTF-8 Plain Text
Duration : 41 min 30 s
Bit rate : 46 b/s
Count of elements : 364
Stream size : 14.1 KiB (0%)
Title : Romanian
Language : Romanian
Default : No
Forced : No

Text #25
ID : 27
Format : UTF-8
Codec ID : S_TEXT/UTF8
Codec ID/Info : UTF-8 Plain Text
Duration : 41 min 32 s
Bit rate : 66 b/s
Count of elements : 364
Stream size : 20.1 KiB (0%)
Title : Russian
Language : Russian
Default : No
Forced : No

Text #26
ID : 28
Format : UTF-8
Codec ID : S_TEXT/UTF8
Codec ID/Info : UTF-8 Plain Text
Duration : 41 min 30 s
Bit rate : 41 b/s
Count of elements : 365
Stream size : 12.7 KiB (0%)
Title : Spanish
Language : Spanish
Default : No
Forced : No

Text #27
ID : 29
Format : UTF-8
Codec ID : S_TEXT/UTF8
Codec ID/Info : UTF-8 Plain Text
Duration : 41 min 30 s
Bit rate : 40 b/s
Count of elements : 363
Stream size : 12.3 KiB (0%)
Title : European Spanish
Language : Spanish
Default : No
Forced : No

Text #28
ID : 30
Format : UTF-8
Codec ID : S_TEXT/UTF8
Codec ID/Info : UTF-8 Plain Text
Duration : 41 min 30 s
Bit rate : 39 b/s
Count of elements : 363
Stream size : 11.9 KiB (0%)
Title : Swedish
Language : Swedish
Default : No
Forced : No

Text #29
ID : 31
Format : UTF-8
Codec ID : S_TEXT/UTF8
Codec ID/Info : UTF-8 Plain Text
Duration : 41 min 30 s
Bit rate : 101 b/s
Count of elements : 371
Stream size : 30.9 KiB (0%)
Title : Thai
Language : Thai
Default : No
Forced : No

Text #30
ID : 32
Format : UTF-8
Codec ID : S_TEXT/UTF8
Codec ID/Info : UTF-8 Plain Text
Duration : 41 min 30 s
Bit rate : 40 b/s
Count of elements : 364
Stream size : 12.4 KiB (0%)
Title : Turkish
Language : Turkish
Default : No
Forced : No

Text #31
ID : 33
Format : UTF-8
Codec ID : S_TEXT/UTF8
Codec ID/Info : UTF-8 Plain Text
Duration : 41 min 30 s
Bit rate : 62 b/s
Count of elements : 364
Stream size : 19.1 KiB (0%)
Title : Ukrainian
Language : Ukrainian
Default : No
Forced : No

Text #32
ID : 34
Format : UTF-8
Codec ID : S_TEXT/UTF8
Codec ID/Info : UTF-8 Plain Text
Duration : 41 min 30 s
Bit rate : 60 b/s
Count of elements : 389
Stream size : 18.5 KiB (0%)
Title : Vietnamese
Language : Vietnamese
Default : No
Forced : No

Readme/Password

Password & My Message