Fast Download Mirrors

Rocky IV: Rocky vs. Drago – The Ultimate Director’s Cut (2021) • Movie | 2160p.WEB-DL.x265.10bit.HDR.DDP5.1-TEPES [16.4GB]

Rocky IV: Rocky vs. Drago - The Ultimate Director's Cut (2021)
Rocky IV Drama, Sport | November 27, 1985 (United States) Summary: Rocky Balboa proudly holds the world heavyweight boxing championship, but a new challenger has stepped forward: Drago, a six-foot-four, 261-pound fighter who has the backing of the Soviet Un... Read all
Countries: United StatesLanguages: English, Russian

Director, writer and star Sylvester Stallone masterfully reshapes “Rocky IV” in this ultimate director’s cut — including never before seen footage — bringing back one of the most triumphant sports-dramas of all time.

Mirrors: 1fichier, MultiUp, Gdrive[GDTOT, Sharer, GAdrive]
Format: MKV
Credits: TEPES

Download

Video
ID : 1
Format : HEVC
Format/Info : High Efficiency Video Coding
Format profile : Main 10@L5@High
HDR format : SMPTE ST 2086, HDR10 compatible
Codec ID : V_MPEGH/ISO/HEVC
Duration : 1 h 33 min
Bit rate : 24.4 Mb/s
Width : 3 832 pixels
Height : 1 600 pixels
Display aspect ratio : 2.40:1
Frame rate mode : Constant
Frame rate : 23.976 FPS
Color space : YUV
Chroma subsampling : 4:2:0 (Type 2)
Bit depth : 10 bits
Bits/(Pixel*Frame) : 0.166
Stream size : 16.0 GiB (97%)
Default : Yes
Forced : No
Color range : Limited
Color primaries : BT.2020
Transfer characteristics : PQ
Matrix coefficients : BT.2020 non-constant
Mastering display color primaries : BT.2020
Mastering display luminance : min: 0.0050 cd/m2, max: 1000 cd/m2
Maximum Content Light Level : 10000 cd/m2
Maximum Frame-Average Light Level : 4048 cd/m2

Audio
ID : 2
Format : E-AC-3
Format/Info : Enhanced AC-3
Commercial name : Dolby Digital Plus
Codec ID : A_EAC3
Duration : 1 h 33 min
Bit rate mode : Constant
Bit rate : 640 kb/s
Channel(s) : 6 channels
Channel layout : L R C LFE Ls Rs
Sampling rate : 48.0 kHz
Frame rate : 31.250 FPS (1536 SPF)
Compression mode : Lossy
Stream size : 430 MiB (3%)
Language : English
Service kind : Complete Main
Default : Yes
Forced : No

Text #1
ID : 3
Format : UTF-8
Codec ID : S_TEXT/UTF8
Codec ID/Info : UTF-8 Plain Text
Duration : 7 min 35 s
Bit rate : 5 b/s
Count of elements : 15
Stream size : 321 Bytes (0%)
Title : Forced
Language : English
Default : Yes
Forced : Yes

Text #2
ID : 4
Format : UTF-8
Codec ID : S_TEXT/UTF8
Codec ID/Info : UTF-8 Plain Text
Duration : 1 h 26 min
Bit rate : 53 b/s
Count of elements : 1011
Stream size : 34.0 KiB (0%)
Language : English
Default : No
Forced : No

Text #3
ID : 5
Format : UTF-8
Codec ID : S_TEXT/UTF8
Codec ID/Info : UTF-8 Plain Text
Duration : 1 h 26 min
Bit rate : 64 b/s
Count of elements : 1166
Stream size : 40.9 KiB (0%)
Title : SDH
Language : English
Default : No
Forced : No

Menu
00:00:00.000 : Chapter 1
00:07:21.000 : Chapter 2
00:15:46.042 : Chapter 3
00:22:21.041 : Chapter 4
00:30:42.000 : Chapter 5
00:37:08.000 : Chapter 6
00:44:12.000 : Chapter 7
00:51:17.666 : Chapter 8
00:58:33.916 : Chapter 9
01:02:47.500 : Chapter 10
01:11:55.000 : Chapter 11
01:17:27.000 : Chapter 12
01:27:10.000 : Chapter 13

Readme/Password

Password & My Message

Screenshots