Fast Download Mirrors

Boogie Nights (1997) • Movie | BluRay.1080p.TrueHD.5.1.VC-1.REMUX-FraMeSToR [29.94 GB]

Boogie Nights (1997)
Boogie Nights Drama | October 31, 1997 (United States) Summary: Back when sex was safe, pleasure was a business and business was booming, an idealistic porn producer aspires to elevate his craft to an art when he discovers a hot young talent.
Countries: United StatesLanguages: English

Set in 1977, back when sex was safe, pleasure was a business and business was booming, idealistic porn producer Jack Horner aspires to elevate his craft to an art form. Horner discovers Eddie Adams, a hot young talent working as a busboy in a nightclub, and welcomes him into the extended family of movie-makers, misfits and hangers-on that are always around. Adams’ rise from nobody to a celebrity adult entertainer is meteoric, and soon the whole world seems to know his porn alter ego, “Dirk Diggler”. Now, when disco and drugs are in vogue, fashion is in flux and the party never seems to stop, Adams’ dreams of turning sex into stardom are about to collide with cold, hard reality.

Mirrors: GDrive [Gadrive, GDToT, Index, Sharer], MultiUp
Format: MKV
Credits: FraMeSToR

Download

General
Unique ID                                : 184320170927894386087694203472138259254 (0x8AAAC60E37FE711444FA89BBA4E0CB36)
Complete name                            : Boogie.Nights.1997.BluRay.1080p.TrueHD.5.1.VC-1.REMUX-FraMeSToR.mkv
Format                                   : Matroska
Format version                           : Version 4
File size                                : 29.9 GiB
Duration                                 : 2 h 35 min
Overall bit rate mode                    : Variable
Overall bit rate                         : 27.5 Mb/s
Movie name                               : Boogie Nights
Encoded date                             : UTC 2016-12-20 14:51:54
Writing application                      : mkvmerge v9.6.0 ('Slave To Your Mind') 64bit
Writing library                          : libebml v1.3.4 + libmatroska v1.4.5

Video
ID                                       : 1
Format                                   : VC-1
Format profile                           : Advanced@L3
Codec ID                                 : V_MS/VFW/FOURCC / WVC1
Codec ID/Hint                            : Microsoft
Duration                                 : 2 h 35 min
Bit rate                                 : 24.6 Mb/s
Width                                    : 1 920 pixels
Height                                   : 1 080 pixels
Display aspect ratio                     : 16:9
Frame rate mode                          : Constant
Frame rate                               : 23.976 (24000/1001) FPS
Color space                              : YUV
Chroma subsampling                       : 4:2:0
Bit depth                                : 8 bits
Scan type                                : Progressive
Compression mode                         : Lossy
Bits/(Pixel*Frame)                       : 0.495
Stream size                              : 26.8 GiB (89%)
Default                                  : Yes
Forced                                   : No

Audio #1
ID                                       : 2
Format                                   : MLP FBA
Format/Info                              : Meridian Lossless Packing FBA
Commercial name                          : Dolby TrueHD
Codec ID                                 : A_TRUEHD
Duration                                 : 2 h 35 min
Bit rate mode                            : Variable
Bit rate                                 : 1 698 kb/s
Maximum bit rate                         : 3 009 kb/s
Channel(s)                               : 6 channels
Channel layout                           : L R C LFE Ls Rs
Sampling rate                            : 48.0 kHz
Frame rate                               : 1 200.000 FPS (40 SPF)
Compression mode                         : Lossless
Stream size                              : 1.85 GiB (6%)
Title                                    : TrueHD 5.1
Language                                 : English
Default                                  : Yes
Forced                                   : No

Audio #2
ID                                       : 3
Format                                   : AC-3
Format/Info                              : Audio Coding 3
Commercial name                          : Dolby Digital
Codec ID                                 : A_AC3
Duration                                 : 2 h 35 min
Bit rate mode                            : Constant
Bit rate                                 : 640 kb/s
Channel(s)                               : 6 channels
Channel layout                           : L R C LFE Ls Rs
Sampling rate                            : 48.0 kHz
Frame rate                               : 31.250 FPS (1536 SPF)
Compression mode                         : Lossy
Stream size                              : 712 MiB (2%)
Title                                    : AC3 5.1
Language                                 : English
Service kind                             : Complete Main
Default                                  : No
Forced                                   : No

Audio #3
ID                                       : 4
Format                                   : AC-3
Format/Info                              : Audio Coding 3
Commercial name                          : Dolby Digital
Format settings                          : Dolby Surround
Codec ID                                 : A_AC3
Duration                                 : 2 h 35 min
Bit rate mode                            : Constant
Bit rate                                 : 192 kb/s
Channel(s)                               : 2 channels
Channel layout                           : L R
Sampling rate                            : 48.0 kHz
Frame rate                               : 31.250 FPS (1536 SPF)
Compression mode                         : Lossy
Stream size                              : 214 MiB (1%)
Title                                    : Commentary by Director Paul Thomas Anderson
Language                                 : English
Service kind                             : Complete Main
Default                                  : No
Forced                                   : No

Audio #4
ID                                       : 5
Format                                   : AC-3
Format/Info                              : Audio Coding 3
Commercial name                          : Dolby Digital
Format settings                          : Dolby Surround
Codec ID                                 : A_AC3
Duration                                 : 2 h 35 min
Bit rate mode                            : Constant
Bit rate                                 : 192 kb/s
Channel(s)                               : 2 channels
Channel layout                           : L R
Sampling rate                            : 48.0 kHz
Frame rate                               : 31.250 FPS (1536 SPF)
Compression mode                         : Lossy
Stream size                              : 214 MiB (1%)
Title                                    : Commentary by P.T. Anderson/Mark Wahlberg/John C. Reilly/Don Cheadle/Julianne Moore/William H. Macy/Heather Graham
Language                                 : English
Service kind                             : Complete Main
Default                                  : No
Forced                                   : No

Text #1
ID                                       : 6
Format                                   : PGS
Codec ID                                 : S_HDMV/PGS
Codec ID/Info                            : Picture based subtitle format used on BDs/HD-DVDs
Duration                                 : 2 h 34 min
Bit rate                                 : 41.0 kb/s
Count of elements                        : 4550
Stream size                              : 45.2 MiB (0%)
Title                                    : English (SDH)
Language                                 : English
Default                                  : Yes
Forced                                   : No

Text #2
ID                                       : 7
Format                                   : PGS
Codec ID                                 : S_HDMV/PGS
Codec ID/Info                            : Picture based subtitle format used on BDs/HD-DVDs
Duration                                 : 2 h 34 min
Bit rate                                 : 46.0 kb/s
Count of elements                        : 4550
Stream size                              : 50.7 MiB (0%)
Title                                    : German (SDH)
Language                                 : German
Default                                  : No
Forced                                   : No

Text #3
ID                                       : 8
Format                                   : PGS
Codec ID                                 : S_HDMV/PGS
Codec ID/Info                            : Picture based subtitle format used on BDs/HD-DVDs
Duration                                 : 2 h 34 min
Bit rate                                 : 28.3 kb/s
Count of elements                        : 3902
Stream size                              : 31.2 MiB (0%)
Title                                    : Spanish (Castilian)
Language                                 : Spanish
Default                                  : No
Forced                                   : No

Text #4
ID                                       : 9
Format                                   : PGS
Codec ID                                 : S_HDMV/PGS
Codec ID/Info                            : Picture based subtitle format used on BDs/HD-DVDs
Duration                                 : 2 h 34 min
Bit rate                                 : 28.0 kb/s
Count of elements                        : 3884
Stream size                              : 31.0 MiB (0%)
Title                                    : Spanish (Latin American)
Language                                 : Spanish
Default                                  : No
Forced                                   : No

Menu
00:00:00.000                             : en:Opening Logo/Boogie Nights
00:08:13.868                             : en:"The Sage"/Introductions
00:12:45.473                             : en:Breakfast at the Adams'
00:14:09.849                             : en:Buck's TK421
00:21:07.140                             : en:Coffee Shop
00:23:32.119                             : en:"Brand New Key"
00:28:14.275                             : en:"Mama Told Me..."/Jack's Party
00:31:03.862                             : en:The Colonel/"Spill the Wine"
00:34:49.962                             : en:"Lonely Boy"/Maggie
00:36:16.507                             : en:Little Bill/"Fooled Around..."
00:38:38.983                             : en:"I Think She's Sick"
00:39:47.343                             : en:Scotty/"You Sexy Thing"
00:44:25.662                             : en:First Sex Scene
00:55:15.520                             : en:"If You Need a Close Up"/"Boogie Shoes"
00:57:35.577                             : en:"Machine Gun"/Split Screen
01:01:32.855                             : en:Award Ceremony
01:03:21.339                             : en:1978/Brock and Chest
01:05:55.242                             : en:Dirk's New House/"Gotta Give It Up"
01:10:26.680                             : en:Floyd Gondolli/"Driver's Seat"
01:11:59.732                             : en:Todd Parker
01:15:38.992                             : en:Godzilla vs. Mothra
01:18:56.148                             : en:Scotty and Dirk
01:21:28.550                             : en:Little Bill's New Year
01:24:32.025                             : en:Amber's Documentary
01:29:18.728                             : en:Jack and the Colonel
01:33:34.317                             : en:Johnny Doe
01:39:07.191                             : en:"The Touch"
01:40:34.403                             : en:Sequence D/"Compared to What"
01:47:09.881                             : en:Buck's Loan
01:49:41.116                             : en:Amber's Hearing
01:53:15.830                             : en:On the Lookout
02:02:08.195                             : en:The Donut Shop
02:07:04.283                             : en:Rashad Jackson/"Sister Christian"
02:12:25.228                             : en:Cosmo and "Jesse's Girl"
02:19:50.840                             : en:"God Only Knows"
02:22:48.101                             : en:"The Big Top"
02:25:19.961                             : en:The Last Shot

Readme/Password

Password & My Message