Fast Download Mirrors

Encanto (2021) • Movie | 1080p.WEB.H264-SLOT [7.4GB]

Encanto (2021) • Movie
Encanto Animation, Comedy, Drama, Family, Fantasy, Musical | November 24, 2021 (United States) Summary: A young Colombian girl has to face the frustration of being the only member of her family without magical powers.
Countries: United States, ColombiaLanguages: English, Spanish

The tale of an extraordinary family, the Madrigals, who live hidden in the mountains of Colombia, in a magical house, in a vibrant town, in a wondrous, charmed place called an Encanto. The magic of the Encanto has blessed every child in the family with a unique gift from super strength to the power to heal—every child except one, Mirabel. But when she discovers that the magic surrounding the Encanto is in danger, Mirabel decides that she, the only ordinary Madrigal, might just be her exceptional family’s last hope.

Mirrors: MirrorAce, MultiUp, Gdrive[GDTOT, Sharer]
Format: MKV
Credits: SLOT

Download

Video
ID : 1
Format : AVC
Format/Info : Advanced Video Codec
Format profile : High@L4
Format settings : CABAC / 4 Ref Frames
Format settings, CABAC : Yes
Format settings, Reference frames : 4 frames
Codec ID : V_MPEG4/ISO/AVC
Duration : 1 h 42 min
Bit rate : 9 681 kb/s
Width : 1 920 pixels
Height : 1 038 pixels
Display aspect ratio : 1.85:1
Frame rate mode : Constant
Frame rate : 23.976 FPS
Color space : YUV
Chroma subsampling : 4:2:0
Bit depth : 8 bits
Scan type : Progressive
Bits/(Pixel*Frame) : 0.203
Stream size : 6.95 GiB (94%)
Default : Yes
Forced : No
Color range : Limited
Color primaries : BT.709
Transfer characteristics : BT.709
Matrix coefficients : BT.709

Audio
ID : 2
Format : E-AC-3
Format/Info : Enhanced AC-3
Commercial name : Dolby Digital Plus
Format settings : Dolby Surround EX
Codec ID : A_EAC3
Duration : 1 h 42 min
Bit rate mode : Constant
Bit rate : 640 kb/s
Channel(s) : 8 channels
Channel layout : L R C LFE Ls Rs Lb Rb
Sampling rate : 48.0 kHz
Frame rate : 31.250 FPS (1536 SPF)
Compression mode : Lossy
Stream size : 467 MiB (6%)
Language : English
Service kind : Complete Main
Default : Yes
Forced : No

Text #1
ID : 3
Format : UTF-8
Codec ID : S_TEXT/UTF8
Codec ID/Info : UTF-8 Plain Text
Duration : 1 h 30 min
Bit rate : 62 b/s
Count of elements : 1211
Stream size : 41.1 KiB (0%)
Language : English
Default : No
Forced : No

Text #2
ID : 4
Format : UTF-8
Codec ID : S_TEXT/UTF8
Codec ID/Info : UTF-8 Plain Text
Duration : 1 h 30 min
Bit rate : 63 b/s
Count of elements : 1211
Stream size : 41.8 KiB (0%)
Title : Latin American
Language : Spanish
Default : No
Forced : No

Text #3
ID : 5
Format : UTF-8
Codec ID : S_TEXT/UTF8
Codec ID/Info : UTF-8 Plain Text
Duration : 1 h 40 min
Bit rate : 60 b/s
Count of elements : 1259
Stream size : 44.5 KiB (0%)
Title : Canadian
Language : French
Default : No
Forced : No

Menu
00:00:00.000 : en:Chapter 01
00:03:57.654 : en:Chapter 02
00:09:49.297 : en:Chapter 03
00:15:07.574 : en:Chapter 04
00:16:54.889 : en:Chapter 05
00:21:48.808 : en:Chapter 06
00:24:54.911 : en:Chapter 07
00:28:58.613 : en:Chapter 08
00:31:10.620 : en:Chapter 09
00:38:35.106 : en:Chapter 10
00:44:57.822 : en:Chapter 11
00:53:39.969 : en:Chapter 12
01:01:22.349 : en:Chapter 13
01:06:28.071 : en:Chapter 14
01:11:41.259 : en:Chapter 15
01:16:38.139 : en:Chapter 16
01:24:25.398 : en:Chapter 17
01:31:02.212 : en:Chapter 18

Readme/Password

Password & My Message

Screenshots