Fast Download Mirrors

Freaks and Geeks (1999-2000) • TVSeries | S01.REPACK.1080p.BluRay.REMUX.AVC.DTS-HD.MA.2.0-EPSiLON [144 GB]

Freaks and Geeks (1999-2000)
Freaks and Geeks Comedy, Drama | September 25, 1999 (United States) Summary: A high school mathlete starts hanging out with a group of burnouts while her younger brother navigates his freshman year.
Countries: United StatesLanguages: English

High school mathlete Lindsay Weir rebels and begins hanging out with a crowd of burnouts (the “freaks”), while her brother Sam Weir navigates a different part of the social universe with his nerdy friends (the “geeks”).

Mirrors: GDrive Index
Format: MKV
Credits: EPSiLON
Seasons: 1 Complete

Download

General
Unique ID                                : 98955408154300283129816573768329444302 (0x4A721E4DA65CFA58DFE632A8C271BBCE)
Complete name                            : Freaks.and.Geeks.S01E01.Pilot.REPACK.1080p.BluRay.REMUX.AVC.DTS-HD.MA.2.0-EPSiLON.mkv
Format                                   : Matroska
Format version                           : Version 4
File size                                : 10.2 GiB
Duration                                 : 47 min 12 s
Overall bit rate mode                    : Variable
Overall bit rate                         : 30.9 Mb/s
Movie name                               : Freaks and Geeks - S01E01 - Pilot
Track name/Position                      : 1
Track name/Total                         : 18
Encoded date                             : UTC 2020-03-24 21:17:04
Writing application                      : mkvmerge v44.0.0 ('Domino') 64-bit
Writing library                          : libebml v1.3.10 + libmatroska v1.5.2
IMDB                                     : tt0582679
TMDB                                     : tv/2382
TVDB                                     : 76321

Video
ID                                       : 1
Format                                   : AVC
Format/Info                              : Advanced Video Codec
Format profile                           : High@L4.1
Format settings                          : CABAC / 4 Ref Frames
Format settings, CABAC                   : Yes
Format settings, Reference frames        : 4 frames
Codec ID                                 : V_MPEG4/ISO/AVC
Duration                                 : 47 min 11 s
Bit rate mode                            : Variable
Bit rate                                 : 27.9 Mb/s
Maximum bit rate                         : 38.0 Mb/s
Width                                    : 1 920 pixels
Height                                   : 1 080 pixels
Display aspect ratio                     : 16:9
Frame rate mode                          : Constant
Frame rate                               : 23.976 (24000/1001) FPS
Color space                              : YUV
Chroma subsampling                       : 4:2:0
Bit depth                                : 8 bits
Scan type                                : Progressive
Bits/(Pixel*Frame)                       : 0.560
Stream size                              : 9.18 GiB (90%)
Title                                    : MPEG-4 AVC Video / 27987 kbps / 1080p / 23.976 fps / 16:9 / High Profile 4.1
Language                                 : English
Default                                  : Yes
Forced                                   : No

Audio #1
ID                                       : 2
Format                                   : DTS XLL
Format/Info                              : Digital Theater Systems
Commercial name                          : DTS-HD Master Audio
Codec ID                                 : A_DTS
Duration                                 : 47 min 12 s
Bit rate mode                            : Variable
Bit rate                                 : 2 103 kb/s
Channel(s)                               : 2 channels
Channel layout                           : L R
Sampling rate                            : 48.0 kHz
Frame rate                               : 93.750 FPS (512 SPF)
Bit depth                                : 24 bits
Compression mode                         : Lossless
Stream size                              : 710 MiB (7%)
Title                                    : DTS-HD Master Audio / 2.0 / 48 kHz / 2103 kbps / 24-bit
Language                                 : English
Default                                  : Yes
Forced                                   : No

Audio #2
ID                                       : 3
Format                                   : AC-3
Format/Info                              : Audio Coding 3
Commercial name                          : Dolby Digital
Codec ID                                 : A_AC3
Duration                                 : 47 min 11 s
Bit rate mode                            : Constant
Bit rate                                 : 448 kb/s
Channel(s)                               : 2 channels
Channel layout                           : L R
Sampling rate                            : 48.0 kHz
Frame rate                               : 31.250 FPS (1536 SPF)
Compression mode                         : Lossy
Stream size                              : 151 MiB (1%)
Title                                    : Commentary by director Jake Kasdan, creator/writer/producer Paul Feig, and producer Judd Apatow
Language                                 : English
Service kind                             : Complete Main
Default                                  : No
Forced                                   : No

Audio #3
ID                                       : 4
Format                                   : AC-3
Format/Info                              : Audio Coding 3
Commercial name                          : Dolby Digital
Codec ID                                 : A_AC3
Duration                                 : 47 min 11 s
Bit rate mode                            : Constant
Bit rate                                 : 448 kb/s
Channel(s)                               : 2 channels
Channel layout                           : L R
Sampling rate                            : 48.0 kHz
Frame rate                               : 31.250 FPS (1536 SPF)
Compression mode                         : Lossy
Stream size                              : 151 MiB (1%)
Title                                    : Commentary by actor Samm Levine and fans Michael “Humphries” Beardsley, Arnold “The Vegan” Freeman and, Kibbles the Rocker
Language                                 : English
Service kind                             : Complete Main
Default                                  : No
Forced                                   : No

Text
ID                                       : 5
Format                                   : PGS
Codec ID                                 : S_HDMV/PGS
Codec ID/Info                            : Picture based subtitle format used on BDs/HD-DVDs
Duration                                 : 46 min 29 s
Bit rate                                 : 46.2 kb/s
Count of elements                        : 1675
Stream size                              : 15.4 MiB (0%)
Title                                    : SDH
Language                                 : English
Default                                  : No
Forced                                   : No

Menu
00:00:00.000                             : en:Chapter 1
00:04:08.498                             : en:Chapter 2
00:13:13.835                             : en:Chapter 3
00:23:37.916                             : en:Chapter 4
00:33:36.640                             : en:Chapter 5
00:46:41.173                             : en:Chapter 6

Readme/Password

Password & My Message