Fast Download Mirrors

Prison Break (2005-2017) • TVSeries | S01-S05.1080p.BluRay.REMUX.AVC.DTS-HD.MA.5.1-EPSiLON [764.7 GB]

Prison Break (2005-2017)
Prison Break Action, Crime, Drama, Mystery, Thriller | August 29, 2005 (United States) Summary: Due to a political conspiracy, an innocent man is sent to death row and his only hope is his brother, who makes it his mission to deliberately get himself sent to the same prison in order to... Read all
Countries: United Kingdom, United StatesLanguages: English, Arabic, Spanish

Due to a political conspiracy, an innocent man is sent to death row and his only hope is his brother, who makes it his mission to deliberately get himself sent to the same prison in order to break the both of them out, from the inside out.

Mirrors: GDrive Index
Format: MKV
Credits: EPSiLON
Seasons: 1-5 Complete

Download

General
Unique ID                                : 48506295056745211536607043765037541984 (0x247DF8FD3CF467024BADC3E38A6DAA60)
Complete name                            : Prison.Break.S01E01.Pilot.1080p.BluRay.REMUX.AVC.DTS-HD.MA.5.1-EPSiLON.mkv
Format                                   : Matroska
Format version                           : Version 4
File size                                : 11.1 GiB
Duration                                 : 43 min 41 s
Overall bit rate mode                    : Variable
Overall bit rate                         : 36.4 Mb/s
Movie name                               : Prison Break - S01E01 - Pilot
Track name/Position                      : 1
Track name/Total                         : 22
Encoded date                             : UTC 2020-07-17 15:02:06
Writing application                      : mkvmerge v48.0.0 ('Fortress Around Your Heart') 64-bit
Writing library                          : libebml v1.4.0 + libmatroska v1.6.0
IMDB                                     : tt0678483
TMDB                                     : tv/2288
TVDB                                     : 360115

Video
ID                                       : 1
Format                                   : AVC
Format/Info                              : Advanced Video Codec
Format profile                           : High@L4.1
Format settings                          : CABAC / 3 Ref Frames
Format settings, CABAC                   : Yes
Format settings, Reference frames        : 3 frames
Format settings, GOP                     : M=3, N=24
Codec ID                                 : V_MPEG4/ISO/AVC
Duration                                 : 43 min 41 s
Bit rate                                 : 30.5 Mb/s
Width                                    : 1 920 pixels
Height                                   : 1 080 pixels
Display aspect ratio                     : 16:9
Frame rate mode                          : Constant
Frame rate                               : 23.976 (24000/1001) FPS
Color space                              : YUV
Chroma subsampling                       : 4:2:0
Bit depth                                : 8 bits
Scan type                                : Progressive
Bits/(Pixel*Frame)                       : 0.613
Stream size                              : 9.31 GiB (84%)
Title                                    : MPEG-4 AVC Video / 30500 kbps / 1080p / 23.976 fps / 16:9 / High Profile 4.1
Language                                 : English
Default                                  : Yes
Forced                                   : No

Audio #1
ID                                       : 2
Format                                   : DTS XLL
Format/Info                              : Digital Theater Systems
Commercial name                          : DTS-HD Master Audio
Codec ID                                 : A_DTS
Duration                                 : 43 min 41 s
Bit rate mode                            : Variable
Bit rate                                 : 4 186 kb/s
Channel(s)                               : 6 channels
Channel layout                           : C L R Ls Rs LFE
Sampling rate                            : 48.0 kHz
Frame rate                               : 93.750 FPS (512 SPF)
Bit depth                                : 24 bits
Compression mode                         : Lossless
Stream size                              : 1.28 GiB (12%)
Title                                    : DTS-HD Master Audio / 5.1 / 48 kHz / 4186 kbps / 24-bit
Language                                 : English
Default                                  : Yes
Forced                                   : No

Audio #2
ID                                       : 3
Format                                   : AC-3
Format/Info                              : Audio Coding 3
Commercial name                          : Dolby Digital
Codec ID                                 : A_AC3
Duration                                 : 43 min 41 s
Bit rate mode                            : Constant
Bit rate                                 : 224 kb/s
Channel(s)                               : 2 channels
Channel layout                           : L R
Sampling rate                            : 48.0 kHz
Frame rate                               : 31.250 FPS (1536 SPF)
Compression mode                         : Lossy
Stream size                              : 70.0 MiB (1%)
Title                                    : Commentary by creator Paul Scheuring and actor Dominic Purcell
Language                                 : English
Service kind                             : Complete Main
Default                                  : No
Forced                                   : No

Audio #3
ID                                       : 4
Format                                   : AC-3
Format/Info                              : Audio Coding 3
Commercial name                          : Dolby Digital
Codec ID                                 : A_AC3
Duration                                 : 43 min 41 s
Bit rate mode                            : Constant
Bit rate                                 : 224 kb/s
Channel(s)                               : 2 channels
Channel layout                           : L R
Sampling rate                            : 48.0 kHz
Frame rate                               : 31.250 FPS (1536 SPF)
Compression mode                         : Lossy
Stream size                              : 70.0 MiB (1%)
Title                                    : Commentary by director Brett Ratner and editor Mark Helfrich
Language                                 : English
Service kind                             : Complete Main
Default                                  : No
Forced                                   : No

Text #1
ID                                       : 5
Format                                   : PGS
Codec ID                                 : S_HDMV/PGS
Codec ID/Info                            : Picture based subtitle format used on BDs/HD-DVDs
Duration                                 : 42 min 19 s
Bit rate                                 : 47.0 kb/s
Count of elements                        : 1204
Stream size                              : 14.2 MiB (0%)
Title                                    : SDH
Language                                 : English
Default                                  : No
Forced                                   : No

Text #2
ID                                       : 6
Format                                   : PGS
Codec ID                                 : S_HDMV/PGS
Codec ID/Info                            : Picture based subtitle format used on BDs/HD-DVDs
Duration                                 : 41 min 55 s
Bit rate                                 : 44.3 kb/s
Count of elements                        : 932
Stream size                              : 13.3 MiB (0%)
Title                                    : Cantonese
Language                                 : Chinese
Default                                  : No
Forced                                   : No

Text #3
ID                                       : 7
Format                                   : PGS
Codec ID                                 : S_HDMV/PGS
Codec ID/Info                            : Picture based subtitle format used on BDs/HD-DVDs
Duration                                 : 41 min 55 s
Bit rate                                 : 42.8 kb/s
Count of elements                        : 866
Stream size                              : 12.8 MiB (0%)
Language                                 : Dutch
Default                                  : No
Forced                                   : No

Text #4
ID                                       : 8
Format                                   : PGS
Codec ID                                 : S_HDMV/PGS
Codec ID/Info                            : Picture based subtitle format used on BDs/HD-DVDs
Duration                                 : 41 min 54 s
Bit rate                                 : 45.7 kb/s
Count of elements                        : 1204
Stream size                              : 13.7 MiB (0%)
Title                                    : Canadian
Language                                 : French
Default                                  : No
Forced                                   : No

Text #5
ID                                       : 9
Format                                   : PGS
Codec ID                                 : S_HDMV/PGS
Codec ID/Info                            : Picture based subtitle format used on BDs/HD-DVDs
Duration                                 : 43 min 4 s
Bit rate                                 : 45.0 kb/s
Count of elements                        : 932
Stream size                              : 13.9 MiB (0%)
Language                                 : French
Default                                  : No
Forced                                   : No

Text #6
ID                                       : 10
Format                                   : PGS
Codec ID                                 : S_HDMV/PGS
Codec ID/Info                            : Picture based subtitle format used on BDs/HD-DVDs
Duration                                 : 41 min 55 s
Bit rate                                 : 47.2 kb/s
Count of elements                        : 927
Stream size                              : 14.1 MiB (0%)
Language                                 : German
Default                                  : No
Forced                                   : No

Text #7
ID                                       : 11
Format                                   : PGS
Codec ID                                 : S_HDMV/PGS
Codec ID/Info                            : Picture based subtitle format used on BDs/HD-DVDs
Duration                                 : 41 min 55 s
Bit rate                                 : 46.6 kb/s
Count of elements                        : 930
Stream size                              : 14.0 MiB (0%)
Language                                 : Greek
Default                                  : No
Forced                                   : No

Text #8
ID                                       : 12
Format                                   : PGS
Codec ID                                 : S_HDMV/PGS
Codec ID/Info                            : Picture based subtitle format used on BDs/HD-DVDs
Duration                                 : 41 min 55 s
Bit rate                                 : 47.1 kb/s
Count of elements                        : 930
Stream size                              : 14.1 MiB (0%)
Language                                 : Italian
Default                                  : No
Forced                                   : No

Text #9
ID                                       : 13
Format                                   : PGS
Codec ID                                 : S_HDMV/PGS
Codec ID/Info                            : Picture based subtitle format used on BDs/HD-DVDs
Duration                                 : 41 min 54 s
Bit rate                                 : 26.2 kb/s
Count of elements                        : 1076
Stream size                              : 7.86 MiB (0%)
Language                                 : Japanese
Default                                  : No
Forced                                   : No

Text #10
ID                                       : 14
Format                                   : PGS
Codec ID                                 : S_HDMV/PGS
Codec ID/Info                            : Picture based subtitle format used on BDs/HD-DVDs
Duration                                 : 41 min 55 s
Bit rate                                 : 43.7 kb/s
Count of elements                        : 930
Stream size                              : 13.1 MiB (0%)
Language                                 : mdr
Default                                  : No
Forced                                   : No

Text #11
ID                                       : 15
Format                                   : PGS
Codec ID                                 : S_HDMV/PGS
Codec ID/Info                            : Picture based subtitle format used on BDs/HD-DVDs
Duration                                 : 41 min 55 s
Bit rate                                 : 48.5 kb/s
Count of elements                        : 930
Stream size                              : 14.5 MiB (0%)
Title                                    : Brazilian
Language                                 : Portuguese
Default                                  : No
Forced                                   : No

Text #12
ID                                       : 16
Format                                   : PGS
Codec ID                                 : S_HDMV/PGS
Codec ID/Info                            : Picture based subtitle format used on BDs/HD-DVDs
Duration                                 : 41 min 54 s
Bit rate                                 : 44.5 kb/s
Count of elements                        : 1204
Stream size                              : 13.3 MiB (0%)
Title                                    : Latin American
Language                                 : Spanish
Default                                  : No
Forced                                   : No

Text #13
ID                                       : 17
Format                                   : PGS
Codec ID                                 : S_HDMV/PGS
Codec ID/Info                            : Picture based subtitle format used on BDs/HD-DVDs
Duration                                 : 41 min 55 s
Bit rate                                 : 45.5 kb/s
Count of elements                        : 928
Stream size                              : 13.6 MiB (0%)
Title                                    : Castilian
Language                                 : Spanish
Default                                  : No
Forced                                   : No

Text #14
ID                                       : 18
Format                                   : PGS
Codec ID                                 : S_HDMV/PGS
Codec ID/Info                            : Picture based subtitle format used on BDs/HD-DVDs
Duration                                 : 43 min 24 s
Bit rate                                 : 71.0 kb/s
Count of elements                        : 1085
Stream size                              : 22.0 MiB (0%)
Title                                    : Commentary by creator Paul Scheuring and actor Dominic Purcell (SDH)
Language                                 : English
Default                                  : No
Forced                                   : No

Text #15
ID                                       : 19
Format                                   : PGS
Codec ID                                 : S_HDMV/PGS
Codec ID/Info                            : Picture based subtitle format used on BDs/HD-DVDs
Duration                                 : 43 min 24 s
Bit rate                                 : 55.9 kb/s
Count of elements                        : 970
Stream size                              : 17.3 MiB (0%)
Title                                    : Commentary by creator Paul Scheuring and actor Dominic Purcell
Language                                 : Dutch
Default                                  : No
Forced                                   : No

Text #16
ID                                       : 20
Format                                   : PGS
Codec ID                                 : S_HDMV/PGS
Codec ID/Info                            : Picture based subtitle format used on BDs/HD-DVDs
Duration                                 : 43 min 28 s
Bit rate                                 : 58.2 kb/s
Count of elements                        : 1000
Stream size                              : 18.1 MiB (0%)
Title                                    : Commentary by creator Paul Scheuring and actor Dominic Purcell
Language                                 : French
Default                                  : No
Forced                                   : No

Text #17
ID                                       : 21
Format                                   : PGS
Codec ID                                 : S_HDMV/PGS
Codec ID/Info                            : Picture based subtitle format used on BDs/HD-DVDs
Duration                                 : 43 min 25 s
Bit rate                                 : 60.9 kb/s
Count of elements                        : 996
Stream size                              : 18.9 MiB (0%)
Title                                    : Commentary by creator Paul Scheuring and actor Dominic Purcell
Language                                 : German
Default                                  : No
Forced                                   : No

Text #18
ID                                       : 22
Format                                   : PGS
Codec ID                                 : S_HDMV/PGS
Codec ID/Info                            : Picture based subtitle format used on BDs/HD-DVDs
Duration                                 : 43 min 24 s
Bit rate                                 : 61.0 kb/s
Count of elements                        : 995
Stream size                              : 18.9 MiB (0%)
Title                                    : Commentary by creator Paul Scheuring and actor Dominic Purcell
Language                                 : Italian
Default                                  : No
Forced                                   : No

Text #19
ID                                       : 23
Format                                   : PGS
Codec ID                                 : S_HDMV/PGS
Codec ID/Info                            : Picture based subtitle format used on BDs/HD-DVDs
Duration                                 : 43 min 24 s
Bit rate                                 : 56.0 kb/s
Count of elements                        : 994
Stream size                              : 17.4 MiB (0%)
Title                                    : Commentary by creator Paul Scheuring and actor Dominic Purcell (Castilian)
Language                                 : Spanish
Default                                  : No
Forced                                   : No

Text #20
ID                                       : 24
Format                                   : PGS
Codec ID                                 : S_HDMV/PGS
Codec ID/Info                            : Picture based subtitle format used on BDs/HD-DVDs
Duration                                 : 43 min 33 s
Bit rate                                 : 58.3 kb/s
Count of elements                        : 900
Stream size                              : 18.2 MiB (0%)
Title                                    : Commentary by director Brett Ratner and editor Mark Helfrich (SDH)
Language                                 : English
Default                                  : No
Forced                                   : No

Text #21
ID                                       : 25
Format                                   : PGS
Codec ID                                 : S_HDMV/PGS
Codec ID/Info                            : Picture based subtitle format used on BDs/HD-DVDs
Duration                                 : 43 min 33 s
Bit rate                                 : 47.0 kb/s
Count of elements                        : 830
Stream size                              : 14.6 MiB (0%)
Title                                    : Commentary by director Brett Ratner and editor Mark Helfrich
Language                                 : Dutch
Default                                  : No
Forced                                   : No

Text #22
ID                                       : 26
Format                                   : PGS
Codec ID                                 : S_HDMV/PGS
Codec ID/Info                            : Picture based subtitle format used on BDs/HD-DVDs
Duration                                 : 43 min 34 s
Bit rate                                 : 50.3 kb/s
Count of elements                        : 868
Stream size                              : 15.7 MiB (0%)
Title                                    : Commentary by director Brett Ratner and editor Mark Helfrich
Language                                 : French
Default                                  : No
Forced                                   : No

Text #23
ID                                       : 27
Format                                   : PGS
Codec ID                                 : S_HDMV/PGS
Codec ID/Info                            : Picture based subtitle format used on BDs/HD-DVDs
Duration                                 : 43 min 33 s
Bit rate                                 : 51.3 kb/s
Count of elements                        : 872
Stream size                              : 16.0 MiB (0%)
Title                                    : Commentary by director Brett Ratner and editor Mark Helfrich
Language                                 : German
Default                                  : No
Forced                                   : No

Text #24
ID                                       : 28
Format                                   : PGS
Codec ID                                 : S_HDMV/PGS
Codec ID/Info                            : Picture based subtitle format used on BDs/HD-DVDs
Duration                                 : 43 min 33 s
Bit rate                                 : 53.3 kb/s
Count of elements                        : 864
Stream size                              : 16.6 MiB (0%)
Title                                    : Commentary by director Brett Ratner and editor Mark Helfrich
Language                                 : Italian
Default                                  : No
Forced                                   : No

Text #25
ID                                       : 29
Format                                   : PGS
Codec ID                                 : S_HDMV/PGS
Codec ID/Info                            : Picture based subtitle format used on BDs/HD-DVDs
Duration                                 : 43 min 33 s
Bit rate                                 : 49.7 kb/s
Count of elements                        : 864
Stream size                              : 15.5 MiB (0%)
Title                                    : Commentary by director Brett Ratner and editor Mark Helfrich (Castilian)
Language                                 : Spanish
Default                                  : No
Forced                                   : No

Menu
00:00:00.000                             : en:Chapter 1
00:05:13.063                             : en:Chapter 2
00:08:34.764                             : en:Chapter 3
00:11:06.666                             : en:Chapter 4
00:14:05.428                             : en:Chapter 5
00:15:36.769                             : en:Chapter 6
00:17:20.247                             : en:Chapter 7
00:19:44.517                             : en:Chapter 8
00:25:57.097                             : en:Chapter 9
00:31:53.745                             : en:Chapter 10
00:35:26.291                             : en:Chapter 11
00:39:24.821                             : en:Chapter 12

Readme/Password

Password & My Message