Fast Download Mirrors

Last Man Down (2021) • Movie | 1080p.Remux.AVC.DTS-HD.MA.5.1-playBD [17.9 GB]

Last Man Down (2021)
Last Man Down Action | October 19, 2021 (United States) Summary: John Wood left the pieces of a broken civilisation behind, to go back to his roots in the woodland, after a virus pandemic struck the world.
Countries: Sweden, United KingdomLanguages: English

After civilization succumbs to a deadly pandemic and his wife is murdered, a special forces soldier abandons his duty and becomes a hermit in the Nordic wilderness. Years later, a wounded woman appears on his doorstep. She’s escaped from a lab and her pursuers believe her blood is the key to a worldwide cure. He’s hesitant to get involved, but all doubts are cast aside when he discovers her pursuer is none other than Commander Stone, the man that murdered his wife some years ago.

Mirrors: 1fichier, MultiUp, Gdrive[GDTOT, Sharer, Gadrive], Gdrive Index
Format: MKV
Credits: playBD

Download

General
Unique ID                                : 179834152152491480124889525179011670186 (0x874ACC40E81C486AF1FDCE3E0531A0AA)
Complete name                            : Last.Man.Down.2021.1080p.Remux.AVC.DTS-HD.MA.5.1-playBD.mkv
Format                                   : Matroska
Format version                           : Version 4
File size                                : 17.9 GiB
Duration                                 : 1 h 27 min
Overall bit rate mode                    : Variable
Overall bit rate                         : 29.3 Mb/s
Encoded date                             : UTC 2021-10-18 17:32:54
Writing application                      : mkvmerge v62.0.0 ('Apollo') 64-bit
Writing library                          : libebml v1.4.2 + libmatroska v1.6.4

Video
ID                                       : 1
Format                                   : AVC
Format/Info                              : Advanced Video Codec
Format profile                           : High@L4.1
Format settings                          : CABAC / 4 Ref Frames
Format settings, CABAC                   : Yes
Format settings, Reference frames        : 4 frames
Codec ID                                 : V_MPEG4/ISO/AVC
Duration                                 : 1 h 27 min
Bit rate mode                            : Variable
Bit rate                                 : 26.9 Mb/s
Maximum bit rate                         : 28.0 Mb/s
Width                                    : 1 920 pixels
Height                                   : 1 080 pixels
Display aspect ratio                     : 16:9
Frame rate mode                          : Constant
Frame rate                               : 23.976 (24000/1001) FPS
Color space                              : YUV
Chroma subsampling                       : 4:2:0
Bit depth                                : 8 bits
Scan type                                : Progressive
Bits/(Pixel*Frame)                       : 0.540
Stream size                              : 16.5 GiB (92%)
Default                                  : Yes
Forced                                   : No

Audio
ID                                       : 2
Format                                   : DTS XLL
Format/Info                              : Digital Theater Systems
Commercial name                          : DTS-HD Master Audio
Codec ID                                 : A_DTS
Duration                                 : 1 h 27 min
Bit rate mode                            : Variable
Bit rate                                 : 2 383 kb/s
Channel(s)                               : 6 channels
Channel layout                           : C L R Ls Rs LFE
Sampling rate                            : 48.0 kHz
Frame rate                               : 93.750 FPS (512 SPF)
Bit depth                                : 16 bits
Compression mode                         : Lossless
Stream size                              : 1.46 GiB (8%)
Language                                 : English
Default                                  : Yes
Forced                                   : No

Text #1
ID                                       : 3
Format                                   : PGS
Codec ID                                 : S_HDMV/PGS
Codec ID/Info                            : Picture based subtitle format used on BDs/HD-DVDs
Duration                                 : 1 h 24 min
Bit rate                                 : 26.1 kb/s
Count of elements                        : 2086
Stream size                              : 15.8 MiB (0%)
Language                                 : English
Default                                  : No
Forced                                   : No

Text #2
ID                                       : 4
Format                                   : UTF-8
Codec ID                                 : S_TEXT/UTF8
Codec ID/Info                            : UTF-8 Plain Text
Duration                                 : 1 h 24 min
Bit rate                                 : 23 b/s
Count of elements                        : 604
Stream size                              : 14.9 KiB (0%)
Language                                 : Romanian
Default                                  : No
Forced                                   : No

Menu
00:00:00.000                             : :Chapter 01
00:09:48.588                             : :Chapter 02
00:18:53.758                             : :Chapter 03
00:27:09.503                             : :Chapter 04
00:36:04.621                             : :Chapter 05
00:45:36.776                             : :Chapter 06
00:54:28.140                             : :Chapter 07
01:02:37.170                             : :Chapter 08
01:10:29.851                             : :Chapter 09
01:19:50.744                             : :Chapter 10
01:25:38.508                             : :Chapter 11
01:27:46.511                             : :Chapter 12

Readme/Password

Password & My Message