Fast Download Mirrors

Last Night in Soho (2021) • Movie | 2160p.UHD.BluRay.REMUX.DV.HDR.HEVC.Atmos-PiRaTeS [49.9 GB]

Last Night in Soho Drama, Horror, Mystery, Thriller | October 29, 2021 (United States) Summary: An aspiring fashion designer is mysteriously able to enter the 1960s where she encounters a dazzling wannabe singer. But the glamour is not all it appears to be and the dreams of the past st... Read all
Countries: United Kingdom, United StatesLanguages: English

A young girl, passionate about fashion design, is mysteriously able to enter the 1960s where she encounters her idol, a dazzling wannabe singer. But 1960s London is not what it seems, and time seems to be falling apart with shady consequences.

Mirrors: GDrive [Gadrive, GDToT, Index, Sharer], MultiUp
Format: MKV
Credits: PiRaTeS

Download

General
Unique ID                                : 92364130199774732305968694929750906191 (0x457CAF35BFE143F79AA6BF749D2A554F)
Complete name                            : Last.Night.in.Soho.2021.2160p.UHD.BluRay.REMUX.DV.HDR.HEVC.Atmos-PiRaTeS.mkv
Format                                   : Matroska
Format version                           : Version 2
File size                                : 49.9 GiB
Duration                                 : 1 h 56 min
Overall bit rate mode                    : Variable
Overall bit rate                         : 61.3 Mb/s
Encoded date                             : UTC 2022-01-19 18:07:51
Writing application                      : MakeMKV v1.16.5 linux(x64-release)
Writing library                          : libmakemkv v1.16.5 (1.3.10/1.5.2) x86_64-linux-gnu

Video
ID                                       : 1
ID in the original source medium         : 4113 (0x1011)
Format                                   : HEVC
Format/Info                              : High Efficiency Video Coding
Format profile                           : Main 10@L5.1@High
HDR format                               : Dolby Vision, Version 1.0, dvhe.07.06, BL+EL+RPU, Blu-ray compatible / SMPTE ST 2086, HDR10 compatible
Codec ID                                 : V_MPEGH/ISO/HEVC
Duration                                 : 1 h 56 min
Bit rate                                 : 58.4 Mb/s
Width                                    : 3 840 pixels
Height                                   : 2 160 pixels
Display aspect ratio                     : 16:9
Frame rate mode                          : Constant
Frame rate                               : 23.976 (24000/1001) FPS
Color space                              : YUV
Chroma subsampling                       : 4:2:0 (Type 2)
Bit depth                                : 10 bits
Bits/(Pixel*Frame)                       : 0.294
Stream size                              : 47.6 GiB (95%)
Language                                 : English
Default                                  : No
Forced                                   : No
Color range                              : Limited
Color primaries                          : BT.2020
Transfer characteristics                 : PQ
Matrix coefficients                      : BT.2020 non-constant
Mastering display color primaries        : Display P3
Mastering display luminance              : min: 0.0001 cd/m2, max: 1000 cd/m2
Maximum Content Light Level              : 997 cd/m2
Maximum Frame-Average Light Level        : 81 cd/m2
Original source medium                   : Blu-ray

Audio
ID                                       : 2
ID in the original source medium         : 4352 (0x1100)
Format                                   : MLP FBA 16-ch
Format/Info                              : Meridian Lossless Packing FBA with 16-channel presentation
Commercial name                          : Dolby TrueHD with Dolby Atmos
Codec ID                                 : A_TRUEHD
Duration                                 : 1 h 56 min
Bit rate mode                            : Variable
Bit rate                                 : 2 754 kb/s
Maximum bit rate                         : 5 115 kb/s
Channel(s)                               : 8 channels
Channel layout                           : L R C LFE Ls Rs Lb Rb
Sampling rate                            : 48.0 kHz
Frame rate                               : 1 200.000 FPS (40 SPF)
Bit depth                                : 24 bits
Compression mode                         : Lossless
Stream size                              : 2.24 GiB (4%)
Language                                 : English
Default                                  : Yes
Forced                                   : No
Original source medium                   : Blu-ray
Number of dynamic objects                : 11
Bed channel count                        : 1 channel
Bed channel configuration                : LFE

Text #1
ID                                       : 3
ID in the original source medium         : 4768 (0x12A0)
Format                                   : PGS
Codec ID                                 : S_HDMV/PGS
Codec ID/Info                            : Picture based subtitle format used on BDs/HD-DVDs
Duration                                 : 1 h 56 min
Bit rate                                 : 44.1 kb/s
Count of elements                        : 4208
Stream size                              : 36.7 MiB (0%)
Language                                 : English
Default                                  : No
Forced                                   : No
Original source medium                   : Blu-ray

Text #2
ID                                       : 5
ID in the original source medium         : 4769 (0x12A1)
Format                                   : PGS
Codec ID                                 : S_HDMV/PGS
Codec ID/Info                            : Picture based subtitle format used on BDs/HD-DVDs
Duration                                 : 1 h 55 min
Bit rate                                 : 34.8 kb/s
Count of elements                        : 3454
Stream size                              : 28.8 MiB (0%)
Language                                 : Spanish
Default                                  : No
Forced                                   : No
Original source medium                   : Blu-ray

Text #3
ID                                       : 6
ID in the original source medium         : 4770 (0x12A2)
Format                                   : PGS
Codec ID                                 : S_HDMV/PGS
Codec ID/Info                            : Picture based subtitle format used on BDs/HD-DVDs
Duration                                 : 1 h 55 min
Bit rate                                 : 29.0 kb/s
Count of elements                        : 2872
Stream size                              : 24.0 MiB (0%)
Language                                 : French
Default                                  : No
Forced                                   : No
Original source medium                   : Blu-ray

Menu
00:00:00.000                             : en:Chapter 01
00:06:08.076                             : en:Chapter 02
00:13:28.015                             : en:Chapter 03
00:17:58.410                             : en:Chapter 04
00:22:24.509                             : en:Chapter 05
00:26:44.185                             : en:Chapter 06
00:33:47.650                             : en:Chapter 07
00:40:02.566                             : en:Chapter 08
00:44:41.011                             : en:Chapter 09
00:51:25.082                             : en:Chapter 10
00:57:21.813                             : en:Chapter 11
01:03:52.912                             : en:Chapter 12
01:09:08.144                             : en:Chapter 13
01:14:40.851                             : en:Chapter 14
01:20:37.666                             : en:Chapter 15
01:26:46.075                             : en:Chapter 16
01:34:00.926                             : en:Chapter 17
01:41:23.911                             : en:Chapter 18
01:49:58.800                             : en:Chapter 19
01:52:18.022                             : en:Chapter 20

Readme/Password

Password & My Message