Fast Download Mirrors

Marriage Story (2019) • Movie | BluRay.1080p.DTS-HD.MA.5.1.AVC.REMUX-FraMeSToR [31.3 GB]

Marriage Story Comedy, Drama, Romance | December 6, 2019 (United States) Summary: Noah Baumbach's incisive and compassionate look at a marriage breaking up and a family staying together.
Countries: United Kingdom, United StatesLanguages: English, Spanish

A stage director and an actress struggle through a grueling, coast-to-coast divorce that pushes them to their personal extremes.

Mirrors: GDrive [Gadrive, GDToT, Index, Sharer], MultiUp
Format: MKV
Credits: FraMeSToR

Download

General
Complete name                            : Marriage.Story.2019.BluRay.1080p.DTS-HD.MA.5.1.AVC.REMUX-FraMeSToR.mkv
Format                                   : Matroska
Format version                           : Version 4
File size                                : 31.3 GiB
Duration                                 : 2 h 17 min
Overall bit rate mode                    : Variable
Overall bit rate                         : 32.7 Mb/s
Encoded date                             : UTC 2020-07-10 23:14:27
Writing application                      : mkvmerge v48.0.0 ('Fortress Around Your Heart') 64-bit
Writing library                          : libebml v1.4.0 + libmatroska v1.6.0
IMDB                                     : tt7653254
TMDB                                     : movie/492188

Video
ID                                       : 1
Format                                   : AVC
Format/Info                              : Advanced Video Codec
Format profile                           : High@L4.1
Format settings                          : CABAC / 4 Ref Frames
Format settings, CABAC                   : Yes
Format settings, Reference frames        : 4 frames
Format settings, GOP                     : M=3, N=12
Codec ID                                 : V_MPEG4/ISO/AVC
Duration                                 : 2 h 17 min
Bit rate mode                            : Variable
Bit rate                                 : 28.3 Mb/s
Maximum bit rate                         : 37.0 Mb/s
Width                                    : 1 920 pixels
Height                                   : 1 080 pixels
Display aspect ratio                     : 16:9
Frame rate mode                          : Constant
Frame rate                               : 23.976 (24000/1001) FPS
Color space                              : YUV
Chroma subsampling                       : 4:2:0
Bit depth                                : 8 bits
Scan type                                : Progressive
Bits/(Pixel*Frame)                       : 0.569
Stream size                              : 27.1 GiB (87%)
Default                                  : Yes
Forced                                   : No

Audio
ID                                       : 2
Format                                   : DTS XLL
Format/Info                              : Digital Theater Systems
Commercial name                          : DTS-HD Master Audio
Codec ID                                 : A_DTS
Duration                                 : 2 h 17 min
Bit rate mode                            : Variable
Bit rate                                 : 3 190 kb/s
Channel(s)                               : 6 channels
Channel layout                           : C L R Ls Rs LFE
Sampling rate                            : 48.0 kHz
Frame rate                               : 93.750 FPS (512 SPF)
Bit depth                                : 24 bits
Compression mode                         : Lossless
Stream size                              : 3.05 GiB (10%)
Title                                    : DTS-HD MA 5.1
Language                                 : English
Default                                  : Yes
Forced                                   : No

Text #1
ID                                       : 3
Format                                   : PGS
Codec ID                                 : S_HDMV/PGS
Codec ID/Info                            : Picture based subtitle format used on BDs/HD-DVDs
Duration                                 : 2 h 11 min
Bit rate                                 : 47.2 kb/s
Count of elements                        : 5118
Stream size                              : 44.3 MiB (0%)
Title                                    : English
Language                                 : English
Default                                  : No
Forced                                   : No

Text #2
ID                                       : 4
Format                                   : PGS
Codec ID                                 : S_HDMV/PGS
Codec ID/Info                            : Picture based subtitle format used on BDs/HD-DVDs
Duration                                 : 2 h 11 min
Bit rate                                 : 86.3 kb/s
Count of elements                        : 5566
Stream size                              : 81.0 MiB (0%)
Title                                    : English (SDH)
Language                                 : English
Default                                  : No
Forced                                   : No

Text #3
ID                                       : 5
Format                                   : PGS
Codec ID                                 : S_HDMV/PGS
Codec ID/Info                            : Picture based subtitle format used on BDs/HD-DVDs
Duration                                 : 2 h 16 min
Bit rate                                 : 30.1 kb/s
Count of elements                        : 4892
Stream size                              : 29.3 MiB (0%)
Title                                    : Arabic
Language                                 : Arabic
Default                                  : No
Forced                                   : No

Text #4
ID                                       : 6
Format                                   : PGS
Codec ID                                 : S_HDMV/PGS
Codec ID/Info                            : Picture based subtitle format used on BDs/HD-DVDs
Duration                                 : 2 h 16 min
Bit rate                                 : 37.9 kb/s
Count of elements                        : 5094
Stream size                              : 36.9 MiB (0%)
Title                                    : Chinese (Mandarin Simplified)
Language                                 : Chinese
Default                                  : No
Forced                                   : No

Text #5
ID                                       : 7
Format                                   : PGS
Codec ID                                 : S_HDMV/PGS
Codec ID/Info                            : Picture based subtitle format used on BDs/HD-DVDs
Duration                                 : 2 h 16 min
Bit rate                                 : 35.0 kb/s
Count of elements                        : 5046
Stream size                              : 34.1 MiB (0%)
Title                                    : Chinese (Mandarin Traditional)
Language                                 : Chinese
Default                                  : No
Forced                                   : No

Text #6
ID                                       : 8
Format                                   : PGS
Codec ID                                 : S_HDMV/PGS
Codec ID/Info                            : Picture based subtitle format used on BDs/HD-DVDs
Duration                                 : 2 h 16 min
Bit rate                                 : 36.7 kb/s
Count of elements                        : 4892
Stream size                              : 35.8 MiB (0%)
Title                                    : Czech
Language                                 : Czech
Default                                  : No
Forced                                   : No

Text #7
ID                                       : 9
Format                                   : PGS
Codec ID                                 : S_HDMV/PGS
Codec ID/Info                            : Picture based subtitle format used on BDs/HD-DVDs
Duration                                 : 2 h 16 min
Bit rate                                 : 40.8 kb/s
Count of elements                        : 4878
Stream size                              : 39.7 MiB (0%)
Title                                    : Danish
Language                                 : Danish
Default                                  : No
Forced                                   : No

Text #8
ID                                       : 10
Format                                   : PGS
Codec ID                                 : S_HDMV/PGS
Codec ID/Info                            : Picture based subtitle format used on BDs/HD-DVDs
Duration                                 : 2 h 16 min
Bit rate                                 : 38.9 kb/s
Count of elements                        : 4790
Stream size                              : 37.9 MiB (0%)
Title                                    : Dutch
Language                                 : Dutch
Default                                  : No
Forced                                   : No

Text #9
ID                                       : 11
Format                                   : PGS
Codec ID                                 : S_HDMV/PGS
Codec ID/Info                            : Picture based subtitle format used on BDs/HD-DVDs
Duration                                 : 2 h 16 min
Bit rate                                 : 38.8 kb/s
Count of elements                        : 4884
Stream size                              : 37.7 MiB (0%)
Title                                    : Finnish
Language                                 : Finnish
Default                                  : No
Forced                                   : No

Text #10
ID                                       : 12
Format                                   : PGS
Codec ID                                 : S_HDMV/PGS
Codec ID/Info                            : Picture based subtitle format used on BDs/HD-DVDs
Duration                                 : 2 h 15 min
Bit rate                                 : 37.9 kb/s
Count of elements                        : 4842
Stream size                              : 36.8 MiB (0%)
Title                                    : French
Language                                 : French
Default                                  : No
Forced                                   : No

Text #11
ID                                       : 13
Format                                   : PGS
Codec ID                                 : S_HDMV/PGS
Codec ID/Info                            : Picture based subtitle format used on BDs/HD-DVDs
Duration                                 : 2 h 16 min
Bit rate                                 : 39.1 kb/s
Count of elements                        : 4412
Stream size                              : 38.1 MiB (0%)
Title                                    : German
Language                                 : German
Default                                  : No
Forced                                   : No

Text #12
ID                                       : 14
Format                                   : PGS
Codec ID                                 : S_HDMV/PGS
Codec ID/Info                            : Picture based subtitle format used on BDs/HD-DVDs
Duration                                 : 2 h 16 min
Bit rate                                 : 41.4 kb/s
Count of elements                        : 4892
Stream size                              : 40.3 MiB (0%)
Title                                    : Greek
Language                                 : Greek
Default                                  : No
Forced                                   : No

Text #13
ID                                       : 15
Format                                   : PGS
Codec ID                                 : S_HDMV/PGS
Codec ID/Info                            : Picture based subtitle format used on BDs/HD-DVDs
Duration                                 : 2 h 16 min
Bit rate                                 : 30.8 kb/s
Count of elements                        : 4892
Stream size                              : 30.0 MiB (0%)
Title                                    : Hebrew
Language                                 : Hebrew
Default                                  : No
Forced                                   : No

Text #14
ID                                       : 16
Format                                   : PGS
Codec ID                                 : S_HDMV/PGS
Codec ID/Info                            : Picture based subtitle format used on BDs/HD-DVDs
Duration                                 : 2 h 16 min
Bit rate                                 : 44.7 kb/s
Count of elements                        : 4890
Stream size                              : 43.5 MiB (0%)
Title                                    : Hungarian
Language                                 : Hungarian
Default                                  : No
Forced                                   : No

Text #15
ID                                       : 17
Format                                   : PGS
Codec ID                                 : S_HDMV/PGS
Codec ID/Info                            : Picture based subtitle format used on BDs/HD-DVDs
Duration                                 : 2 h 16 min
Bit rate                                 : 45.5 kb/s
Count of elements                        : 4904
Stream size                              : 44.2 MiB (0%)
Title                                    : Indonesian
Language                                 : Indonesian
Default                                  : No
Forced                                   : No

Text #16
ID                                       : 18
Format                                   : PGS
Codec ID                                 : S_HDMV/PGS
Codec ID/Info                            : Picture based subtitle format used on BDs/HD-DVDs
Duration                                 : 2 h 16 min
Bit rate                                 : 39.6 kb/s
Count of elements                        : 4852
Stream size                              : 38.6 MiB (0%)
Title                                    : Italian
Language                                 : Italian
Default                                  : No
Forced                                   : No

Text #17
ID                                       : 19
Format                                   : PGS
Codec ID                                 : S_HDMV/PGS
Codec ID/Info                            : Picture based subtitle format used on BDs/HD-DVDs
Duration                                 : 2 h 16 min
Bit rate                                 : 25.5 kb/s
Count of elements                        : 5004
Stream size                              : 24.8 MiB (0%)
Title                                    : Japanese
Language                                 : Japanese
Default                                  : No
Forced                                   : No

Text #18
ID                                       : 20
Format                                   : PGS
Codec ID                                 : S_HDMV/PGS
Codec ID/Info                            : Picture based subtitle format used on BDs/HD-DVDs
Duration                                 : 2 h 16 min
Bit rate                                 : 30.4 kb/s
Count of elements                        : 5040
Stream size                              : 29.6 MiB (0%)
Title                                    : Korean
Language                                 : Korean
Default                                  : No
Forced                                   : No

Text #19
ID                                       : 21
Format                                   : PGS
Codec ID                                 : S_HDMV/PGS
Codec ID/Info                            : Picture based subtitle format used on BDs/HD-DVDs
Duration                                 : 2 h 16 min
Bit rate                                 : 40.8 kb/s
Count of elements                        : 4874
Stream size                              : 39.7 MiB (0%)
Title                                    : Norwegian
Language                                 : Norwegian
Default                                  : No
Forced                                   : No

Text #20
ID                                       : 22
Format                                   : PGS
Codec ID                                 : S_HDMV/PGS
Codec ID/Info                            : Picture based subtitle format used on BDs/HD-DVDs
Duration                                 : 2 h 16 min
Bit rate                                 : 39.2 kb/s
Count of elements                        : 4816
Stream size                              : 38.2 MiB (0%)
Title                                    : Polish
Language                                 : Polish
Default                                  : No
Forced                                   : No

Text #21
ID                                       : 23
Format                                   : PGS
Codec ID                                 : S_HDMV/PGS
Codec ID/Info                            : Picture based subtitle format used on BDs/HD-DVDs
Duration                                 : 2 h 16 min
Bit rate                                 : 38.6 kb/s
Count of elements                        : 4760
Stream size                              : 37.6 MiB (0%)
Title                                    : Portuguese (Brazilian)
Language                                 : Portuguese
Default                                  : No
Forced                                   : No

Text #22
ID                                       : 24
Format                                   : PGS
Codec ID                                 : S_HDMV/PGS
Codec ID/Info                            : Picture based subtitle format used on BDs/HD-DVDs
Duration                                 : 2 h 16 min
Bit rate                                 : 41.2 kb/s
Count of elements                        : 4934
Stream size                              : 40.1 MiB (0%)
Title                                    : Portuguese (Iberian)
Language                                 : Portuguese
Default                                  : No
Forced                                   : No

Text #23
ID                                       : 25
Format                                   : PGS
Codec ID                                 : S_HDMV/PGS
Codec ID/Info                            : Picture based subtitle format used on BDs/HD-DVDs
Duration                                 : 2 h 12 min
Bit rate                                 : 40.3 kb/s
Count of elements                        : 4982
Stream size                              : 38.3 MiB (0%)
Title                                    : Romanian
Language                                 : Romanian
Default                                  : No
Forced                                   : No

Text #24
ID                                       : 26
Format                                   : PGS
Codec ID                                 : S_HDMV/PGS
Codec ID/Info                            : Picture based subtitle format used on BDs/HD-DVDs
Duration                                 : 2 h 16 min
Bit rate                                 : 40.7 kb/s
Count of elements                        : 4834
Stream size                              : 39.6 MiB (0%)
Title                                    : Russian
Language                                 : Russian
Default                                  : No
Forced                                   : No

Text #25
ID                                       : 27
Format                                   : PGS
Codec ID                                 : S_HDMV/PGS
Codec ID/Info                            : Picture based subtitle format used on BDs/HD-DVDs
Duration                                 : 2 h 16 min
Bit rate                                 : 38.1 kb/s
Count of elements                        : 4776
Stream size                              : 37.1 MiB (0%)
Title                                    : Spanish (Castilian)
Language                                 : Spanish
Default                                  : No
Forced                                   : No

Text #26
ID                                       : 28
Format                                   : PGS
Codec ID                                 : S_HDMV/PGS
Codec ID/Info                            : Picture based subtitle format used on BDs/HD-DVDs
Duration                                 : 2 h 16 min
Bit rate                                 : 39.4 kb/s
Count of elements                        : 4644
Stream size                              : 38.3 MiB (0%)
Title                                    : Spanish (Latin American)
Language                                 : Spanish
Default                                  : No
Forced                                   : No

Text #27
ID                                       : 29
Format                                   : PGS
Codec ID                                 : S_HDMV/PGS
Codec ID/Info                            : Picture based subtitle format used on BDs/HD-DVDs
Duration                                 : 2 h 16 min
Bit rate                                 : 40.5 kb/s
Count of elements                        : 4892
Stream size                              : 39.4 MiB (0%)
Title                                    : Swedish
Language                                 : Swedish
Default                                  : No
Forced                                   : No

Text #28
ID                                       : 30
Format                                   : PGS
Codec ID                                 : S_HDMV/PGS
Codec ID/Info                            : Picture based subtitle format used on BDs/HD-DVDs
Duration                                 : 2 h 16 min
Bit rate                                 : 43.2 kb/s
Count of elements                        : 5174
Stream size                              : 42.1 MiB (0%)
Title                                    : Thai
Language                                 : Thai
Default                                  : No
Forced                                   : No

Text #29
ID                                       : 31
Format                                   : PGS
Codec ID                                 : S_HDMV/PGS
Codec ID/Info                            : Picture based subtitle format used on BDs/HD-DVDs
Duration                                 : 2 h 16 min
Bit rate                                 : 41.5 kb/s
Count of elements                        : 4892
Stream size                              : 40.4 MiB (0%)
Title                                    : Turkish
Language                                 : Turkish
Default                                  : No
Forced                                   : No

Text #30
ID                                       : 32
Format                                   : PGS
Codec ID                                 : S_HDMV/PGS
Codec ID/Info                            : Picture based subtitle format used on BDs/HD-DVDs
Duration                                 : 2 h 11 min
Bit rate                                 : 48.0 kb/s
Count of elements                        : 4890
Stream size                              : 45.1 MiB (0%)
Title                                    : Vietnamese
Language                                 : Vietnamese
Default                                  : No
Forced                                   : No

Menu
00:00:00.000                             : en:Chapter 1
00:09:49.214                             : en:Chapter 2
00:15:44.360                             : en:Chapter 3
00:21:54.730                             : en:Chapter 4
00:32:34.452                             : en:Chapter 5
00:44:37.300                             : en:Chapter 6
00:49:17.955                             : en:Chapter 7
01:04:05.884                             : en:Chapter 8
01:13:27.987                             : en:Chapter 9
01:24:40.075                             : en:Chapter 10
01:31:15.929                             : en:Chapter 11
01:41:26.789                             : en:Chapter 12
01:47:05.919                             : en:Chapter 13
01:57:24.663                             : en:Chapter 14
02:00:09.077                             : en:Chapter 15
02:04:36.135                             : en:Chapter 16

Readme/Password

Password & My Message