Fast Download Mirrors

No Time to Die (2021) • Movie | 1080p.BluRay.REMUX.AVC.Atmos-PiRaTeS [37.1GB]

No Time to Die (2021)
No Time to Die Action, Adventure, Thriller | October 8, 2021 (United States) Summary: James Bond has left active service. His peace is short-lived when Felix Leiter, an old friend from the CIA, turns up asking for help, leading Bond onto the trail of a mysterious villain arme... Read all
Countries: United Kingdom, United StatesLanguages: English, French, Italian, Russian, Spanish

Bond has left active service and is enjoying a tranquil life in Jamaica. His peace is short-lived when his old friend Felix Leiter from the CIA turns up asking for help. The mission to rescue a kidnapped scientist turns out to be far more treacherous than expected, leading Bond onto the trail of a mysterious villain armed with dangerous new technology.

Mirrors: 1fichier, MultiUp, Gdrive[GDTOT, Sharer, GAdrive], Gdrive Index
Format: MKV
Credits: PiRaTeS

Download

General
Unique ID                                : 276994884360376168016218518615218781400 (0xD06346337D670628BA6FA43E1C2CFCD8)
Complete name                            : No.Time.to.Die.2021.1080p.BluRay.REMUX.AVC.Atmos-PiRaTeS.mkv
Format                                   : Matroska
Format version                           : Version 2
File size                                : 37.2 GiB
Duration                                 : 2 h 43 min
Overall bit rate mode                    : Variable
Overall bit rate                         : 32.6 Mb/s
Encoded date                             : UTC 2021-12-11 08:24:23
Writing application                      : MakeMKV v1.16.5 linux(x64-release)
Writing library                          : libmakemkv v1.16.5 (1.3.10/1.5.2) x86_64-linux-gnu

Video
ID                                       : 1
ID in the original source medium         : 4113 (0x1011)
Format                                   : AVC
Format/Info                              : Advanced Video Codec
Format profile                           : High@L4.1
Format settings                          : CABAC / 2 Ref Frames
Format settings, CABAC                   : Yes
Format settings, Reference frames        : 2 frames
Codec ID                                 : V_MPEG4/ISO/AVC
Duration                                 : 2 h 43 min
Bit rate mode                            : Variable
Bit rate                                 : 29.4 Mb/s
Width                                    : 1 920 pixels
Height                                   : 1 080 pixels
Display aspect ratio                     : 16:9
Frame rate mode                          : Constant
Frame rate                               : 23.976 (24000/1001) FPS
Color space                              : YUV
Chroma subsampling                       : 4:2:0
Bit depth                                : 8 bits
Scan type                                : Progressive
Bits/(Pixel*Frame)                       : 0.591
Stream size                              : 33.6 GiB (90%)
Language                                 : English
Default                                  : No
Forced                                   : No
Original source medium                   : Blu-ray

Audio
ID                                       : 2
ID in the original source medium         : 4352 (0x1100)
Format                                   : MLP FBA 16-ch
Format/Info                              : Meridian Lossless Packing FBA with 16-channel presentation
Commercial name                          : Dolby TrueHD with Dolby Atmos
Codec ID                                 : A_TRUEHD
Duration                                 : 2 h 43 min
Bit rate mode                            : Variable
Bit rate                                 : 3 060 kb/s
Maximum bit rate                         : 5 277 kb/s
Channel(s)                               : 8 channels
Channel layout                           : L R C LFE Ls Rs Lb Rb
Sampling rate                            : 48.0 kHz
Frame rate                               : 1 200.000 FPS (40 SPF)
Bit depth                                : 24 bits
Compression mode                         : Lossless
Stream size                              : 3.49 GiB (9%)
Language                                 : English
Default                                  : Yes
Forced                                   : No
Original source medium                   : Blu-ray
Number of dynamic objects                : 11
Bed channel count                        : 1 channel
Bed channel configuration                : LFE

Text #1
ID                                       : 3
ID in the original source medium         : 4608 (0x1200)
Format                                   : PGS
Codec ID                                 : S_HDMV/PGS
Codec ID/Info                            : Picture based subtitle format used on BDs/HD-DVDs
Duration                                 : 2 h 39 min
Bit rate                                 : 34.9 kb/s
Count of elements                        : 4250
Stream size                              : 39.8 MiB (0%)
Language                                 : English
Default                                  : No
Forced                                   : No
Original source medium                   : Blu-ray

Text #2
ID                                       : 5
ID in the original source medium         : 4609 (0x1201)
Format                                   : PGS
Codec ID                                 : S_HDMV/PGS
Codec ID/Info                            : Picture based subtitle format used on BDs/HD-DVDs
Duration                                 : 2 h 42 min
Bit rate                                 : 27.4 kb/s
Count of elements                        : 3388
Stream size                              : 31.8 MiB (0%)
Language                                 : Spanish
Default                                  : No
Forced                                   : No
Original source medium                   : Blu-ray

Text #3
ID                                       : 6
ID in the original source medium         : 4610 (0x1202)
Format                                   : PGS
Codec ID                                 : S_HDMV/PGS
Codec ID/Info                            : Picture based subtitle format used on BDs/HD-DVDs
Duration                                 : 2 h 39 min
Bit rate                                 : 28.1 kb/s
Count of elements                        : 3248
Stream size                              : 32.1 MiB (0%)
Language                                 : French
Default                                  : No
Forced                                   : No
Original source medium                   : Blu-ray

Menu
00:00:00.000                             : en:Chapter 01
00:06:51.452                             : en:Chapter 02
00:11:57.091                             : en:Chapter 03
00:18:07.002                             : en:Chapter 04
00:27:10.253                             : en:Chapter 05
00:32:39.123                             : en:Chapter 06
00:43:45.956                             : en:Chapter 07
00:57:43.501                             : en:Chapter 08
01:04:06.133                             : en:Chapter 09
01:13:06.423                             : en:Chapter 10
01:22:28.526                             : en:Chapter 11
01:33:49.248                             : en:Chapter 12
01:41:08.020                             : en:Chapter 13
01:52:37.250                             : en:Chapter 14
01:58:30.269                             : en:Chapter 15
02:05:34.652                             : en:Chapter 16
02:13:54.860                             : en:Chapter 17
02:23:59.297                             : en:Chapter 18
02:29:10.483                             : en:Chapter 19
02:36:51.735                             : en:Chapter 20

Readme/Password

Password & My Message