Fast Download Mirrors

Schindler’s List (1993) • Movie | HYBRID.1080p.BluRay.REMUX.AVC.TrueHD.Atmos.7.1-Flights [38.36 GB]

Schindler's List Biography, Drama, History | February 4, 1994 (United States) Summary: In German-occupied Poland during World War II, industrialist Oskar Schindler gradually becomes concerned for his Jewish workforce after witnessing their persecution by the Nazis.
Countries: United StatesLanguages: English, Hebrew, German, Polish, Latin

The true story of how businessman Oskar Schindler saved over a thousand Jewish lives from the Nazis while they worked as slaves in his factory during World War II.

Mirrors: GDrive [Gadrive, GDToT, Index, Sharer], MultiUp
Format: MKV
Credits: Flights

Download

General
Unique ID                                : 273507738358802261039723905365276328743 (0xCDC3ACA1111B474A5100F3FBEFA78327)
Complete name                            : Schindler's.List.1993.HYBRID.1080p.BluRay.REMUX.AVC.TrueHD.Atmos.7.1-Flights.mkv
Format                                   : Matroska
Format version                           : Version 4
File size                                : 38.4 GiB
Duration                                 : 3 h 15 min
Overall bit rate mode                    : Variable
Overall bit rate                         : 28.1 Mb/s
Movie name                               : Schindler's.List.1993.HYBRID.1080p.BluRay.REMUX.AVC.TrueHD.Atmos.7.1-Flights
Encoded date                             : UTC 2021-11-20 08:37:17
Writing application                      : mkvmerge v63.0.0 ('Everything') 64-bit
Writing library                          : libebml v1.4.2 + libmatroska v1.6.4

Video
ID                                       : 1
ID in the original source medium         : 4113 (0x1011)
Format                                   : AVC
Format/Info                              : Advanced Video Codec
Format profile                           : High@L4.1
Format settings                          : CABAC / 4 Ref Frames
Format settings, CABAC                   : Yes
Format settings, Reference frames        : 4 frames
Codec ID                                 : V_MPEG4/ISO/AVC
Duration                                 : 3 h 15 min
Bit rate mode                            : Variable
Bit rate                                 : 24.9 Mb/s
Maximum bit rate                         : 35.0 Mb/s
Width                                    : 1 920 pixels
Height                                   : 1 080 pixels
Display aspect ratio                     : 16:9
Frame rate mode                          : Constant
Frame rate                               : 23.976 (24000/1001) FPS
Color space                              : YUV
Chroma subsampling                       : 4:2:0
Bit depth                                : 8 bits
Scan type                                : Progressive
Bits/(Pixel*Frame)                       : 0.501
Stream size                              : 34.0 GiB (89%)
Language                                 : English
Default                                  : No
Forced                                   : No
Original source medium                   : Blu-ray

Audio
ID                                       : 2
Format                                   : MLP FBA 16-ch
Format/Info                              : Meridian Lossless Packing FBA with 16-channel presentation
Commercial name                          : Dolby TrueHD with Dolby Atmos
Codec ID                                 : A_TRUEHD
Duration                                 : 3 h 15 min
Bit rate mode                            : Variable
Bit rate                                 : 3 130 kb/s
Maximum bit rate                         : 4 629 kb/s
Channel(s)                               : 8 channels
Channel layout                           : L R C LFE Ls Rs Lb Rb
Sampling rate                            : 48.0 kHz
Frame rate                               : 1 200.000 FPS (40 SPF)
Compression mode                         : Lossless
Stream size                              : 4.27 GiB (11%)
Title                                    : TrueHD Atmos 7.1
Language                                 : English
Default                                  : Yes
Forced                                   : No
Number of dynamic objects                : 11
Bed channel count                        : 1 channel
Bed channel configuration                : LFE

Text #1
ID                                       : 3
ID in the original source medium         : 4608 (0x1200)
Format                                   : PGS
Muxing mode                              : zlib
Codec ID                                 : S_HDMV/PGS
Codec ID/Info                            : Picture based subtitle format used on BDs/HD-DVDs
Duration                                 : 3 h 4 min
Bit rate                                 : 38.6 kb/s
Count of elements                        : 4852
Stream size                              : 51.0 MiB (0%)
Language                                 : English
Default                                  : No
Forced                                   : No
Original source medium                   : Blu-ray

Text #2
ID                                       : 4
ID in the original source medium         : 4610 (0x1202)
Format                                   : PGS
Muxing mode                              : zlib
Codec ID                                 : S_HDMV/PGS
Codec ID/Info                            : Picture based subtitle format used on BDs/HD-DVDs
Duration                                 : 3 h 7 min
Bit rate                                 : 24.7 kb/s
Count of elements                        : 3254
Stream size                              : 33.1 MiB (0%)
Language                                 : French
Default                                  : No
Forced                                   : No
Original source medium                   : Blu-ray

Menu
00:00:00.000                             : en:Chapter 01
00:03:23.161                             : en:Chapter 02
00:10:12.153                             : en:Chapter 03
00:14:51.307                             : en:Chapter 04
00:17:28.714                             : en:Chapter 05
00:21:42.384                             : en:Chapter 06
00:23:48.009                             : en:Chapter 07
00:30:37.669                             : en:Chapter 08
00:34:23.728                             : en:Chapter 09
00:41:43.751                             : en:Chapter 10
00:44:16.737                             : en:Chapter 11
00:50:55.761                             : en:Chapter 12
00:55:09.431                             : en:Chapter 13
00:56:44.859                             : en:Chapter 14
01:13:44.753                             : en:Chapter 15
01:17:05.704                             : en:Chapter 16
01:26:02.115                             : en:Chapter 17
01:29:26.319                             : en:Chapter 18
01:32:01.182                             : en:Chapter 19
01:38:36.869                             : en:Chapter 20
01:43:19.776                             : en:Chapter 21
01:49:36.611                             : en:Chapter 22
01:55:45.980                             : en:Chapter 23
01:58:42.824                             : en:Chapter 24
02:02:59.789                             : en:Chapter 25
02:06:49.310                             : en:Chapter 26
02:10:11.637                             : en:Chapter 27
02:13:44.725                             : en:Chapter 28
02:18:21.376                             : en:Chapter 29
02:26:46.506                             : en:Chapter 30
02:34:15.621                             : en:Chapter 31
02:38:48.018                             : en:Chapter 32
02:41:15.415                             : en:Chapter 33
02:46:21.763                             : en:Chapter 34
02:48:12.332                             : en:Chapter 35
02:50:23.046                             : en:Chapter 36
02:55:28.392                             : en:Chapter 37
03:01:51.525                             : en:Chapter 38
03:05:06.470                             : en:Chapter 39
03:08:51.820                             : en:Chapter 40

Readme/Password

Password & My Message