Fast Download Mirrors

Spider-Man: No Way Home (2021) • Movie | REMUX.1080p.Bluray.DTS-HD.MA.5.1.AVC-EVO [25.03 GB]

Spider-Man: No Way Home Action, Adventure, Fantasy, Sci-Fi | December 17, 2021 (United States) Summary: With Spider-Man's identity now revealed, Peter asks Doctor Strange for help. When a spell goes wrong, dangerous foes from other worlds start to appear, forcing Peter to discover what it trul... Read all
Countries: United StatesLanguages: English

Peter Parker is unmasked and no longer able to separate his normal life from the high-stakes of being a super-hero. When he asks for help from Doctor Strange the stakes become even more dangerous, forcing him to discover what it truly means to be Spider-Man.

Mirrors: GDrive [Gadrive, GDToT, Index, Sharer]
Format: MKV
Credits: EVO

Download

General
Unique ID                                : 50208634830143157486503123300398445202 (0x25C5D4D1F3C918FEAA3E5CFACD70B292)
Complete name                            : Spider-Man No Way Home.2022.REMUX.1080p.Bluray.DTS-HD.MA.5.1.AVC-EVO.mkv
Format                                   : Matroska
Format version                           : Version 4
File size                                : 25.0 GiB
Duration                                 : 2 h 28 min
Overall bit rate mode                    : Variable
Overall bit rate                         : 24.2 Mb/s
Encoded date                             : UTC 2022-03-11 14:24:50
Writing application                      : mkvmerge v49.0.0 ('Sick Of Losing Soulmates') 64-bit
Writing library                          : libebml v1.4.0 + libmatroska v1.6.1
Cover                                    : Yes
Attachments                              : cover.jpg

Video
ID                                       : 1
ID in the original source medium         : 4113 (0x1011)
Format                                   : AVC
Format/Info                              : Advanced Video Codec
Format profile                           : High@L4.1
Format settings                          : CABAC / 2 Ref Frames
Format settings, CABAC                   : Yes
Format settings, Reference frames        : 2 frames
Format settings, GOP                     : M=1, N=10
Codec ID                                 : V_MPEG4/ISO/AVC
Duration                                 : 2 h 28 min
Bit rate mode                            : Variable
Bit rate                                 : 21.9 Mb/s
Width                                    : 1 920 pixels
Height                                   : 1 080 pixels
Display aspect ratio                     : 16:9
Frame rate mode                          : Constant
Frame rate                               : 23.976 (24000/1001) FPS
Color space                              : YUV
Chroma subsampling                       : 4:2:0
Bit depth                                : 8 bits
Scan type                                : Progressive
Bits/(Pixel*Frame)                       : 0.441
Stream size                              : 22.7 GiB (91%)
Default                                  : Yes
Forced                                   : No
Original source medium                   : Blu-ray

Audio
ID                                       : 2
ID in the original source medium         : 4352 (0x1100)
Format                                   : DTS XLL
Format/Info                              : Digital Theater Systems
Commercial name                          : DTS-HD Master Audio
Codec ID                                 : A_DTS
Duration                                 : 2 h 28 min
Bit rate mode                            : Variable
Bit rate                                 : 2 200 kb/s
Channel(s)                               : 6 channels
Channel layout                           : C L R Ls Rs LFE
Sampling rate                            : 48.0 kHz
Frame rate                               : 93.750 FPS (512 SPF)
Bit depth                                : 16 bits
Compression mode                         : Lossless
Stream size                              : 2.28 GiB (9%)
Language                                 : English
Default                                  : Yes
Forced                                   : No
Original source medium                   : Blu-ray

Text #1
ID                                       : 3
ID in the original source medium         : 4608 (0x1200)
Format                                   : PGS
Muxing mode                              : zlib
Codec ID                                 : S_HDMV/PGS
Codec ID/Info                            : Picture based subtitle format used on BDs/HD-DVDs
Duration                                 : 2 h 27 min
Bit rate                                 : 41.5 kb/s
Count of elements                        : 4404
Stream size                              : 43.9 MiB (0%)
Language                                 : English
Default                                  : Yes
Forced                                   : No
Original source medium                   : Blu-ray

Text #2
ID                                       : 4
ID in the original source medium         : 4609 (0x1201)
Format                                   : PGS
Muxing mode                              : zlib
Codec ID                                 : S_HDMV/PGS
Codec ID/Info                            : Picture based subtitle format used on BDs/HD-DVDs
Duration                                 : 2 h 27 min
Bit rate                                 : 35.3 kb/s
Count of elements                        : 3833
Stream size                              : 37.4 MiB (0%)
Language                                 : English
Default                                  : No
Forced                                   : No
Original source medium                   : Blu-ray

Menu
00:00:00.000                             : Capítulo 01
00:05:03.177                             : Capítulo 02
00:11:58.591                             : Capítulo 03
00:18:38.909                             : Capítulo 04
00:27:00.451                             : Capítulo 05
00:37:21.239                             : Capítulo 06
00:48:02.003                             : Capítulo 07
00:59:51.795                             : Capítulo 08
01:04:06.634                             : Capítulo 09
01:09:51.311                             : Capítulo 10
01:18:29.453                             : Capítulo 11
01:28:59.625                             : Capítulo 12
01:33:48.287                             : Capítulo 13
01:46:38.390                             : Capítulo 14
02:05:39.323                             : Capítulo 15
02:13:03.600                             : Capítulo 16

Readme/Password

Password & My Message

Screenshots