Fast Download Mirrors

The Mandalorian (2019-) • TVSeries | S02.2160p.WEB.h265-KOGi

The Mandalorian (2019)
The Mandalorian 2400min | Action, Adventure, Sci-Fi | November 12, 2019 (United States) Summary: The travels of a lone bounty hunter in the outer reaches of the galaxy, far from the authority of the New Republic.
Countries: United StatesLanguages: English

The travels of a lone bounty hunter in the outer reaches of the galaxy, far from the authority of the New Republic.

Mirrors: Gdrive[GDTOT, Sharer], GDrive Index
Format: MKV
Credits: KOGi

Download

Gdrive[Single Folder]
https://official12.the-ambassador1.workers.dev/0:/The.Mandalorian/

[Single Episodes]
The.Mandalorian.S02E07.iNTERNAL.2160p.WEB.h265-KOGi.mkv - 5.08 GB
 https://new.gdtot.org/file/5459204893
The.Mandalorian.S02E05.2160p.WEB.h265-KOGi.mkv - 6.4 GB
 https://new.gdtot.org/file/6866626357
The.Mandalorian.S02E06.iNTERNAL.2160p.WEB.h265-KOGi.mkv - 4.49 GB
 https://new.gdtot.org/file/4815904473
The.Mandalorian.S02E02.iNTERNAL.2160p.WEB.h265-KOGi.mkv - 5.63 GB
 https://new.gdtot.org/file/6047617189
The.Mandalorian.S02E04.iNTERNAL.2160p.WEB.h265-KOGi.mkv - 5.28 GB
 https://new.gdtot.org/file/5669401566
The.Mandalorian.S02E03.iNTERNAL.2160p.WEB.h265-KOGi.mkv - 4.67 GB
 https://new.gdtot.org/file/5010367779
The.Mandalorian.S02E01.2160p.WEB.h265-KOGi.mkv - 7.43 GB
 https://new.gdtot.org/file/7973518676
The.Mandalorian.S02E08.iNTERNAL.2160p.WEB.h265-KOGi.mkv - 6.17 GB
 https://new.gdtot.org/file/6625646089


The.Mandalorian.S02E07.iNTERNAL.2160p.WEB.h265-KOGi.mkv
 https://sharer.pw/file/3WTupV6hqzaN
The.Mandalorian.S02E05.2160p.WEB.h265-KOGi.mkv
 https://sharer.pw/file/7TSvx0xFnIa5
The.Mandalorian.S02E06.iNTERNAL.2160p.WEB.h265-KOGi.mkv
 https://sharer.pw/file/nVH-ArnGMPpK
The.Mandalorian.S02E02.iNTERNAL.2160p.WEB.h265-KOGi.mkv
 https://sharer.pw/file/08FWR8OK0283
The.Mandalorian.S02E04.iNTERNAL.2160p.WEB.h265-KOGi.mkv
 https://sharer.pw/file/aBI4wputE6Qp
The.Mandalorian.S02E03.iNTERNAL.2160p.WEB.h265-KOGi.mkv
 https://sharer.pw/file/9asAq-e1jLRf
The.Mandalorian.S02E01.2160p.WEB.h265-KOGi.mkv
 https://sharer.pw/file/2EvLuOydx7Q7
The.Mandalorian.S02E08.iNTERNAL.2160p.WEB.h265-KOGi.mkv
 https://sharer.pw/file/xpJUV-NXbq0i

Complete name                            : The.Mandalorian.S02E08.iNTERNAL.2160p.WEB.h265-KOGi.mkv
Format                                   : Matroska
Format version                           : Version 4
File size                                : 6.17 GiB
Duration                                 : 44 min 4 s
Overall bit rate                         : 20.0 Mb/s
Writing application                      : mkvmerge v51.0.0 ('I Wish') 64-bit
Writing library                          : libebml v1.4.0 + libmatroska v1.6.2

Video
ID                                       : 1
Format                                   : HEVC
Format/Info                              : High Efficiency Video Coding
Format profile                           : Main@L5@High
Codec ID                                 : V_MPEGH/ISO/HEVC
Duration                                 : 44 min 2 s
Bit rate                                 : 19.3 Mb/s
Width                                    : 3 840 pixels
Height                                   : 2 160 pixels
Display aspect ratio                     : 16:9
Frame rate mode                          : Constant
Frame rate                               : 23.976 (24000/1001) FPS
Color space                              : YUV
Chroma subsampling                       : 4:2:0
Bit depth                                : 8 bits
Bits/(Pixel*Frame)                       : 0.097
Stream size                              : 5.93 GiB (96%)
Writing library                          : x265 3.4:[Linux][GCC 7.5.0][64 bit] 8bit+10bit+12bit
Encoding settings                        : cpuid=1111039 / frame-threads=1 / wpp / no-pmode / no-pme / no-psnr / no-ssim / log-level=2 / input-csp=1 / input-res=3840x2160 / interlace=0 / total-frames=0 / level-idc=50 / high-tier=1 / uhd-bd=0 / ref=2 / no-allow-non-conformance / repeat-headers / annexb / no-aud / no-hrd / info / hash=0 / no-temporal-layers / no-open-gop / min-keyint=48 / keyint=48 / gop-lookahead=0 / bframes=4 / b-adapt=0 / b-pyramid / bframe-bias=0 / rc-lookahead=48 / lookahead-slices=8 / scenecut=0 / hist-scenecut=0 / radl=0 / no-splice / no-intra-refresh / ctu=32 / min-cu-size=8 / no-rect / no-amp / max-tu-size=16 / tu-inter-depth=2 / tu-intra-depth=2 / limit-tu=0 / rdoq-level=1 / dynamic-rd=0.00 / no-ssim-rd / signhide / no-tskip / nr-intra=0 / nr-inter=0 / no-constrained-intra / no-strong-intra-smoothing / max-merge=3 / limit-refs=1 / no-limit-modes / me=1 / subme=2 / merange=44 / temporal-mvp / no-frame-dup / no-hme / weightp / no-weightb / no-analyze-src-pics / deblock=0:0 / no-sao / no-sao-non-deblock / rd=4 / selective-sao=0 / early-skip / rskip / no-fast-intra / no-tskip-fast / no-cu-lossless / b-intra / no-splitrd-skip / rdpenalty=1 / psy-rd=1.60 / psy-rdoq=5.00 / no-rd-refine / no-lossless / cbqpoffs=0 / crqpoffs=0 / rc=abr / bitrate=20000 / qcomp=0.75 / qpstep=4 / stats-write=0 / stats-read=0 / vbv-maxrate=24000 / vbv-bufsize=40000 / vbv-init=0.9 / ipratio=1.40 / pbratio=1.30 / aq-mode=3 / aq-strength=1.00 / no-cutree / zone-count=0 / no-strict-cbr / qg-size=32 / no-rc-grain / qpmax=69 / qpmin=0 / no-const-vbv / sar=1 / overscan=0 / videoformat=5 / range=0 / colorprim=1 / transfer=1 / colormatrix=1 / chromaloc=0 / display-window=0 / cll=0,0 / min-luma=0 / max-luma=255 / log2-max-poc-lsb=8 / vui-timing-info / vui-hrd-info / slices=1 / no-opt-qp-pps / no-opt-ref-list-length-pps / no-multi-pass-opt-rps / scenecut-bias=0.00 / hist-threshold=0.01 / no-opt-cu-delta-qp / no-aq-motion / no-hdr10 / no-hdr10-opt / no-dhdr10-opt / no-idr-recovery-sei / analysis-reuse-level=0 / analysis-save-reuse-level=0 / analysis-load-reuse-level=0 / scale-factor=0 / refine-intra=0 / refine-inter=0 / refine-mv=1 / refine-ctu-distortion=0 / no-limit-sao / ctu-info=0 / no-lowpass-dct / refine-analysis-type=0 / copy-pic=1 / max-ausize-factor=1.0 / no-dynamic-refine / no-single-sei / no-hevc-aq / no-svt / no-field / qp-adaptation-range=1.00 / no-scenecut-aware-qpconformance-window-offsets / right=0 / bottom=0
Language                                 : English
Default                                  : Yes
Forced                                   : No
Color range                              : Limited
Color primaries                          : BT.709
Transfer characteristics                 : BT.709
Matrix coefficients                      : BT.709

Audio
ID                                       : 2
Format                                   : E-AC-3 JOC
Format/Info                              : Enhanced AC-3 with Joint Object Coding
Commercial name                          : Dolby Digital Plus with Dolby Atmos
Codec ID                                 : A_EAC3
Duration                                 : 44 min 4 s
Bit rate mode                            : Constant
Bit rate                                 : 768 kb/s
Channel(s)                               : 6 channels
Channel layout                           : L R C LFE Ls Rs
Sampling rate                            : 48.0 kHz
Frame rate                               : 31.250 FPS (1536 SPF)
Compression mode                         : Lossy
Stream size                              : 242 MiB (4%)
Language                                 : English
Service kind                             : Complete Main
Default                                  : Yes
Forced                                   : No
Complexity index                         : 16
Number of dynamic objects                : 15
Bed channel count                        : 1 channel
Bed channel configuration                : LFE

Text #1
ID                                       : 3
Format                                   : UTF-8
Codec ID                                 : S_TEXT/UTF8
Codec ID/Info                            : UTF-8 Plain Text
Duration                                 : 43 min 19 s
Bit rate                                 : 35 b/s
Count of elements                        : 370
Stream size                              : 11.2 KiB (0%)
Title                                    : English (SDH)
Language                                 : English
Default                                  : No
Forced                                   : No

Text #2
ID                                       : 4
Format                                   : UTF-8
Codec ID                                 : S_TEXT/UTF8
Codec ID/Info                            : UTF-8 Plain Text
Duration                                 : 43 min 51 s
Bit rate                                 : 26 b/s
Count of elements                        : 218
Stream size                              : 8.49 KiB (0%)
Title                                    : Dansk
Language                                 : Danish
Default                                  : No
Forced                                   : No

Text #3
ID                                       : 5
Format                                   : UTF-8
Codec ID                                 : S_TEXT/UTF8
Codec ID/Info                            : UTF-8 Plain Text
Duration                                 : 43 min 50 s
Bit rate                                 : 27 b/s
Count of elements                        : 284
Stream size                              : 8.91 KiB (0%)
Title                                    : Deutsch
Language                                 : German
Default                                  : No
Forced                                   : No

Text #4
ID                                       : 6
Format                                   : UTF-8
Codec ID                                 : S_TEXT/UTF8
Codec ID/Info                            : UTF-8 Plain Text
Duration                                 : 43 min 50 s
Bit rate                                 : 25 b/s
Count of elements                        : 298
Stream size                              : 8.23 KiB (0%)
Title                                    : Español (Latinoamericano)
Language                                 : Spanish
Default                                  : No
Forced                                   : No

Text #5
ID                                       : 7
Format                                   : UTF-8
Codec ID                                 : S_TEXT/UTF8
Codec ID/Info                            : UTF-8 Plain Text
Duration                                 : 43 min 50 s
Bit rate                                 : 25 b/s
Count of elements                        : 298
Stream size                              : 8.12 KiB (0%)
Title                                    : Español
Language                                 : Spanish
Default                                  : No
Forced                                   : No

Text #6
ID                                       : 8
Format                                   : UTF-8
Codec ID                                 : S_TEXT/UTF8
Codec ID/Info                            : UTF-8 Plain Text
Duration                                 : 43 min 50 s
Bit rate                                 : 27 b/s
Count of elements                        : 299
Stream size                              : 8.68 KiB (0%)
Title                                    : Suomi
Language                                 : Finnish
Default                                  : No
Forced                                   : No

Text #7
ID                                       : 9
Format                                   : UTF-8
Codec ID                                 : S_TEXT/UTF8
Codec ID/Info                            : UTF-8 Plain Text
Duration                                 : 43 min 50 s
Bit rate                                 : 26 b/s
Count of elements                        : 295
Stream size                              : 8.44 KiB (0%)
Title                                    : Français
Language                                 : French
Default                                  : No
Forced                                   : No

Text #8
ID                                       : 10
Format                                   : UTF-8
Codec ID                                 : S_TEXT/UTF8
Codec ID/Info                            : UTF-8 Plain Text
Duration                                 : 43 min 50 s
Bit rate                                 : 27 b/s
Count of elements                        : 298
Stream size                              : 8.84 KiB (0%)
Title                                    : Indonesian
Language                                 : Indonesian
Default                                  : No
Forced                                   : No

Text #9
ID                                       : 11
Format                                   : UTF-8
Codec ID                                 : S_TEXT/UTF8
Codec ID/Info                            : UTF-8 Plain Text
Duration                                 : 43 min 50 s
Bit rate                                 : 27 b/s
Count of elements                        : 298
Stream size                              : 8.71 KiB (0%)
Title                                    : Italiano
Language                                 : Italian
Default                                  : No
Forced                                   : No

Text #10
ID                                       : 12
Format                                   : UTF-8
Codec ID                                 : S_TEXT/UTF8
Codec ID/Info                            : UTF-8 Plain Text
Duration                                 : 43 min 50 s
Bit rate                                 : 27 b/s
Count of elements                        : 242
Stream size                              : 8.83 KiB (0%)
Title                                    : Nederlands
Language                                 : Dutch
Default                                  : No
Forced                                   : No

Text #11
ID                                       : 13
Format                                   : UTF-8
Codec ID                                 : S_TEXT/UTF8
Codec ID/Info                            : UTF-8 Plain Text
Duration                                 : 43 min 50 s
Bit rate                                 : 24 b/s
Count of elements                        : 298
Stream size                              : 7.97 KiB (0%)
Title                                    : Norsk
Language                                 : Norwegian
Default                                  : No
Forced                                   : No

Text #12
ID                                       : 14
Format                                   : UTF-8
Codec ID                                 : S_TEXT/UTF8
Codec ID/Info                            : UTF-8 Plain Text
Duration                                 : 43 min 50 s
Bit rate                                 : 26 b/s
Count of elements                        : 299
Stream size                              : 8.60 KiB (0%)
Title                                    : Polski
Language                                 : Polish
Default                                  : No
Forced                                   : No

Text #13
ID                                       : 15
Format                                   : UTF-8
Codec ID                                 : S_TEXT/UTF8
Codec ID/Info                            : UTF-8 Plain Text
Duration                                 : 43 min 50 s
Bit rate                                 : 27 b/s
Count of elements                        : 298
Stream size                              : 8.80 KiB (0%)
Title                                    : Português (Brasil)
Language                                 : Portuguese
Default                                  : No
Forced                                   : No

Text #14
ID                                       : 16
Format                                   : UTF-8
Codec ID                                 : S_TEXT/UTF8
Codec ID/Info                            : UTF-8 Plain Text
Duration                                 : 43 min 50 s
Bit rate                                 : 27 b/s
Count of elements                        : 298
Stream size                              : 8.96 KiB (0%)
Title                                    : Português
Language                                 : Portuguese
Default                                  : No
Forced                                   : No

Text #15
ID                                       : 17
Format                                   : UTF-8
Codec ID                                 : S_TEXT/UTF8
Codec ID/Info                            : UTF-8 Plain Text
Duration                                 : 43 min 50 s
Bit rate                                 : 28 b/s
Count of elements                        : 241
Stream size                              : 9.00 KiB (0%)
Title                                    : Svenska
Language                                 : Swedish
Default                                  : No
Forced                                   : No


Password/Readme

Password & My Message