Fast Download Mirrors

Tokyo Ghoul: re (2018) • TVSeries | Complete.Season.01-02.1080p.DUAL-AUDIO.BD.5.1 AAC.HEVC – pseudo

Tokyo Ghoul (2018) • TVSeries
Tokyo Ghoul: re 1440min | Animation, Action, Drama, Fantasy, Horror, Mystery, Thriller | April 3, 2018 (Japan) Summary: Two years have passed since the CCG's raid on Anteiku. Although the atmosphere in Tokyo has changed drastically due to the increased influence of the CCG, ghouls continue to pose a problem a... Read all
Countries: JapanLanguages: Japanese

On the streets of Tokyo, all mystery cannibals “Ghoul” are quietly expanding their power in the human world.
Jin Muyan, an ordinary college student, was dying because he was hunted by a canon. The doctor performed an organ transplant for him, but the organ provider was actually the canon that preyed on him. Jin Mu, who woke up in the hospital bed, soon felt that something was wrong with her body.

Mirrors: MirrorAce, MultiUp, Gdrive[GDTOT, Sharer]
Format: MKV
Credits: pseudo

Download

General
Unique ID                                : 209099290949220119978235111695672275650 (0x9D4F0EFF0743A78A82191C704B7DF2C2)
Complete name                            : [AnimeRG] Tokyo Ghoul - 01 [1080p] [x265] [pseudo].mkv
Format                                   : Matroska
Format version                           : Version 4
File size                                : 313 MiB
Duration                                 : 26 min 2 s
Overall bit rate                         : 1 679 kb/s
Movie name                               : Tragedy
Encoded date                             : UTC 2017-03-13 23:52:59
Writing application                      : mkvmerge v9.2.0 ('Photograph') 64bit
Writing library                          : libebml v1.3.3 + libmatroska v1.4.4
Attachments                              : 14MINUTESSHARP.ttf / 637_0e2d4b16-6374-418b-a9bf-13527ea6414d.ttf.ttf / AaronBecker.ttf / akaDora.ttf / ALBR85W.ttf / ALEX_.ttf / Angie-Bold.ttf / arialbd_0.ttf / ariblk.ttf / CLEARGL.ttf / HANDSEAN.ttf / huxtable.ttf / Laser_0.ttf

Video
ID                                       : 1
Format                                   : HEVC
Format/Info                              : High Efficiency Video Coding
Format profile                           : Main@L5@Main
Codec ID                                 : V_MPEGH/ISO/HEVC
Duration                                 : 26 min 2 s
Bit rate                                 : 1 294 kb/s
Width                                    : 1 920 pixels
Height                                   : 1 080 pixels
Display aspect ratio                     : 16:9
Frame rate mode                          : Constant
Frame rate                               : 23.976 (24000/1001) FPS
Color space                              : YUV
Chroma subsampling                       : 4:2:0
Bit depth                                : 8 bits
Bits/(Pixel*Frame)                       : 0.026
Stream size                              : 241 MiB (77%)
Default                                  : Yes
Forced                                   : No

Audio #1
ID                                       : 4
Format                                   : AAC LC
Format/Info                              : Advanced Audio Codec Low Complexity
Codec ID                                 : A_AAC-2
Duration                                 : 26 min 2 s
Bit rate                                 : 265 kb/s
Channel(s)                               : 6 channels
Channel layout                           : C L R Ls Rs LFE
Sampling rate                            : 48.0 kHz
Frame rate                               : 46.875 FPS (1024 SPF)
Compression mode                         : Lossy
Delay relative to video                  : 20 ms
Stream size                              : 50.0 MiB (16%)
Title                                    : English 5.1 Surround
Language                                 : English
Default                                  : Yes
Forced                                   : No

Audio #2
ID                                       : 5
Format                                   : AAC LC
Format/Info                              : Advanced Audio Codec Low Complexity
Codec ID                                 : A_AAC-2
Duration                                 : 26 min 2 s
Bit rate                                 : 99.5 kb/s
Channel(s)                               : 2 channels
Channel layout                           : L R
Sampling rate                            : 48.0 kHz
Frame rate                               : 46.875 FPS (1024 SPF)
Compression mode                         : Lossy
Delay relative to video                  : 20 ms
Stream size                              : 18.5 MiB (6%)
Title                                    : Japanese Stereo
Language                                 : Japanese
Default                                  : No
Forced                                   : No

Text #1
ID                                       : 2
Format                                   : ASS
Codec ID                                 : S_TEXT/ASS
Codec ID/Info                            : Advanced Sub Station Alpha
Duration                                 : 23 min 38 s
Bit rate                                 : 2 577 b/s
Count of elements                        : 2665
Compression mode                         : Lossless
Stream size                              : 446 KiB (0%)
Title                                    : English (Signs / Songs)
Language                                 : English
Default                                  : Yes
Forced                                   : No

Text #2
ID                                       : 3
Format                                   : ASS
Codec ID                                 : S_TEXT/ASS
Codec ID/Info                            : Advanced Sub Station Alpha
Duration                                 : 26 min 1 s
Bit rate                                 : 2 451 b/s
Count of elements                        : 3029
Compression mode                         : Lossless
Stream size                              : 467 KiB (0%)
Title                                    : English (Full)
Language                                 : English
Default                                  : No
Forced                                   : No

Menu
00:00:00.000                             : en:Prologue
00:02:06.980                             : en:Part 1
00:12:12.000                             : en:Part 2
00:23:59.910                             : en:Ending
00:25:29.960                             : en:Preview


General
Unique ID                                : 236516196809613870820251588479610510482 (0xB1EF5CD1D5A8D9FE83B9D80711D3DC92)
Complete name                            : Tokyo Ghoul - Root A - 01 [1080p] [x265] [pseudo].mkv
Format                                   : Matroska
Format version                           : Version 4
File size                                : 304 MiB
Duration                                 : 24 min 5 s
Overall bit rate                         : 1 762 kb/s
Movie name                               : New Surge
Encoded date                             : UTC 2017-03-14 03:13:23
Writing application                      : mkvmerge v9.2.0 ('Photograph') 64bit
Writing library                          : libebml v1.3.3 + libmatroska v1.4.4
Attachments                              : ALEX_.ttf / Angie-Bold.ttf / BinaryITC TT Light.ttf / brushsp.ttf

Video
ID                                       : 1
Format                                   : HEVC
Format/Info                              : High Efficiency Video Coding
Format profile                           : Main@L5@Main
Codec ID                                 : V_MPEGH/ISO/HEVC
Duration                                 : 24 min 5 s
Bit rate                                 : 1 285 kb/s
Width                                    : 1 920 pixels
Height                                   : 1 080 pixels
Display aspect ratio                     : 16:9
Frame rate mode                          : Constant
Frame rate                               : 23.976 (24000/1001) FPS
Color space                              : YUV
Chroma subsampling                       : 4:2:0
Bit depth                                : 8 bits
Bits/(Pixel*Frame)                       : 0.026
Stream size                              : 221 MiB (73%)
Default                                  : Yes
Forced                                   : No

Audio #1
ID                                       : 4
Format                                   : AAC LC
Format/Info                              : Advanced Audio Codec Low Complexity
Codec ID                                 : A_AAC-2
Duration                                 : 24 min 5 s
Bit rate                                 : 256 kb/s
Channel(s)                               : 6 channels
Channel layout                           : C L R Ls Rs LFE
Sampling rate                            : 48.0 kHz
Frame rate                               : 46.875 FPS (1024 SPF)
Compression mode                         : Lossy
Delay relative to video                  : 20 ms
Stream size                              : 44.1 MiB (15%)
Title                                    : English 5.1 Surround
Language                                 : English
Default                                  : Yes
Forced                                   : No

Audio #2
ID                                       : 5
Format                                   : AAC LC
Format/Info                              : Advanced Audio Codec Low Complexity
Codec ID                                 : A_AAC-2
Duration                                 : 24 min 5 s
Bit rate                                 : 96.0 kb/s
Channel(s)                               : 2 channels
Channel layout                           : L R
Sampling rate                            : 48.0 kHz
Frame rate                               : 46.875 FPS (1024 SPF)
Compression mode                         : Lossy
Delay relative to video                  : 20 ms
Stream size                              : 16.6 MiB (5%)
Title                                    : Japanese Stereo
Language                                 : Japanese
Default                                  : No
Forced                                   : No

Audio #3
ID                                       : 6
Format                                   : AAC LC
Format/Info                              : Advanced Audio Codec Low Complexity
Codec ID                                 : A_AAC-2
Duration                                 : 24 min 5 s
Bit rate                                 : 81.3 kb/s
Channel(s)                               : 2 channels
Channel layout                           : L R
Sampling rate                            : 48.0 kHz
Frame rate                               : 46.875 FPS (1024 SPF)
Compression mode                         : Lossy
Delay relative to video                  : 20 ms
Stream size                              : 14.0 MiB (5%)
Title                                    : English Commentary
Language                                 : English
Default                                  : No
Forced                                   : No

Text #1
ID                                       : 2
Format                                   : ASS
Codec ID                                 : S_TEXT/ASS
Codec ID/Info                            : Advanced Sub Station Alpha
Duration                                 : 22 min 51 s
Bit rate                                 : 19.5 kb/s
Count of elements                        : 2772
Compression mode                         : Lossless
Stream size                              : 3.19 MiB (1%)
Title                                    : English (Signs / Songs)
Language                                 : English
Default                                  : Yes
Forced                                   : No

Text #2
ID                                       : 3
Format                                   : ASS
Codec ID                                 : S_TEXT/ASS
Codec ID/Info                            : Advanced Sub Station Alpha
Duration                                 : 22 min 51 s
Bit rate                                 : 19.6 kb/s
Count of elements                        : 2958
Compression mode                         : Lossless
Stream size                              : 3.20 MiB (1%)
Title                                    : English (Full)
Language                                 : English
Default                                  : No
Forced                                   : No

Menu
00:00:00.033                             : en:Intro
00:01:04.970                             : en:OP
00:02:35.000                             : en:Part A
00:09:33.050                             : en:Part B
00:22:32.050                             : en:ED
00:24:02.080                             : en:Preview


Readme

Password & My Message