Fast Download Mirrors

Vampires: Los Muertos (2002) • Movie | 1080p.BluRay.REMUX.AVC.DTS-HD.MA.5.1-TRiToN [14.7GB]

Vampires: Los Muertos (2002)
Vampires: Los Muertos 93min | Action, Horror, Thriller | June 27, 2003 (Spain) Summary: A vampire hunter and a priest fight a band of the walking dead in Mexico.
Countries: United States, MexicoLanguages: English

Tough-as-nails vampire hunter Derek Bliss is on the hunt for “suckers” in the heart of Mexico when he receives a new assignment from a mysterious client. Thrown together with a group of slayers, including sexy Zooey, who may or may not be one of the undead. Derek and company are up against a growing number of fast-moving, bloodthirsty vampires and their elusive and powerful leader.

Mirrors: MultiUp, GDrive Index, Gdrive[GDTOT, Sharer]
Format: MKV
Credits: TRiToN

Download

General
Unique ID                                : 8611257039187406987658608815059960235 (0x67A77C05E4E9C5A4C6D2C13F6E301AB)
Complete name                            : Vampires Los Muertos 2002 1080p BluRay REMUX AVC DTS-HD MA 5.1-TRiToN.mkv
Format                                   : Matroska
Format version                           : Version 4
File size                                : 14.8 GiB
Duration                                 : 1 h 33 min
Overall bit rate mode                    : Variable
Overall bit rate                         : 22.6 Mb/s
Movie name                               : Vampires: Los Muertos (2002)
Encoded date                             : UTC 2021-10-22 03:53:51
Writing application                      : mkvmerge v62.0.0 ('Apollo') 64-bit
Writing library                          : libebml v1.4.2 + libmatroska v1.6.4
IMDB                                     : tt0272147
TMDB                                     : movie/10605

Video
ID                                       : 1
Format                                   : AVC
Format/Info                              : Advanced Video Codec
Format profile                           : High@L4.1
Format settings                          : CABAC / 4 Ref Frames
Format settings, CABAC                   : Yes
Format settings, Reference frames        : 4 frames
Codec ID                                 : V_MPEG4/ISO/AVC
Duration                                 : 1 h 33 min
Bit rate mode                            : Variable
Bit rate                                 : 20.0 Mb/s
Maximum bit rate                         : 34.0 Mb/s
Width                                    : 1 920 pixels
Height                                   : 1 080 pixels
Display aspect ratio                     : 16:9
Frame rate mode                          : Constant
Frame rate                               : 23.976 (24000/1001) FPS
Color space                              : YUV
Chroma subsampling                       : 4:2:0
Bit depth                                : 8 bits
Scan type                                : Progressive
Bits/(Pixel*Frame)                       : 0.402
Stream size                              : 13.1 GiB (88%)
Title                                    : MPEG-4 AVC Video / 19981 kbps / 1080p / 23.976 fps / 16:9 / High Profile 4.1
Writing library                          : x264 core 155
Encoding settings                        : cabac=1 / ref=4 / deblock=1:0:0 / analyse=0x3:0x113 / me=umh / subme=8 / psy=1 / psy_rd=1.00:0.00 / mixed_ref=1 / me_range=16 / chroma_me=1 / trellis=1 / 8x8dct=1 / cqm=0 / deadzone=21,11 / fast_pskip=1 / chroma_qp_offset=-2 / threads=36 / lookahead_threads=6 / sliced_threads=0 / slices=4 / nr=0 / decimate=1 / interlaced=0 / bluray_compat=0 / stitchable=1 / constrained_intra=0 / bframes=3 / b_pyramid=0 / b_adapt=1 / b_bias=0 / direct=3 / weightb=1 / open_gop=0 / weightp=1 / keyint=24 / keyint_min=1 / scenecut=40 / intra_refresh=0 / rc_lookahead=24 / rc=2pass / mbtree=1 / bitrate=20000 / ratetol=1.0 / qcomp=0.60 / qpmin=0 / qpmax=69 / qpstep=4 / cplxblur=20.0 / qblur=0.5 / vbv_maxrate=34000 / vbv_bufsize=20000 / nal_hrd=vbr / filler=0 / ip_ratio=1.40 / aq=3:1.00
Language                                 : English
Default                                  : Yes
Forced                                   : No

Audio #1
ID                                       : 2
Format                                   : DTS XLL
Format/Info                              : Digital Theater Systems
Commercial name                          : DTS-HD Master Audio
Codec ID                                 : A_DTS
Duration                                 : 1 h 33 min
Bit rate mode                            : Variable
Bit rate                                 : 2 399 kb/s
Channel(s)                               : 6 channels
Channel layout                           : C L R Ls Rs LFE
Sampling rate                            : 48.0 kHz
Frame rate                               : 93.750 FPS (512 SPF)
Bit depth                                : 16 bits
Compression mode                         : Lossless
Stream size                              : 1.57 GiB (11%)
Title                                    : DTS-HD Master Audio / 5.1 / 48 kHz / 2399 kbps / 16-bit
Language                                 : English
Default                                  : Yes
Forced                                   : No

Audio #2
ID                                       : 3
Format                                   : AC-3
Format/Info                              : Audio Coding 3
Commercial name                          : Dolby Digital
Format settings                          : Dolby Surround
Codec ID                                 : A_AC3
Duration                                 : 1 h 33 min
Bit rate mode                            : Constant
Bit rate                                 : 192 kb/s
Channel(s)                               : 2 channels
Channel layout                           : L R
Sampling rate                            : 48.0 kHz
Frame rate                               : 31.250 FPS (1536 SPF)
Compression mode                         : Lossy
Delay relative to video                  : 23 ms
Stream size                              : 128 MiB (1%)
Title                                    : Commentary by Director/Writer Tommy Lee Wallace
Language                                 : English
Service kind                             : Complete Main
Default                                  : No
Forced                                   : No

Text #1
ID                                       : 4
Format                                   : PGS
Codec ID                                 : S_HDMV/PGS
Codec ID/Info                            : Picture based subtitle format used on BDs/HD-DVDs
Duration                                 : 1 h 27 min
Bit rate                                 : 19.9 kb/s
Count of elements                        : 1316
Stream size                              : 12.5 MiB (0%)
Language                                 : English
Default                                  : No
Forced                                   : No

Text #2
ID                                       : 5
Format                                   : PGS
Codec ID                                 : S_HDMV/PGS
Codec ID/Info                            : Picture based subtitle format used on BDs/HD-DVDs
Duration                                 : 1 h 28 min
Bit rate                                 : 17.4 kb/s
Count of elements                        : 1019
Stream size                              : 11.1 MiB (0%)
Language                                 : German
Default                                  : No
Forced                                   : No

Menu
00:00:00.000                             : en:Chapter 01
00:12:05.725                             : en:Chapter 02
00:23:03.007                             : en:Chapter 03
00:36:56.214                             : en:Chapter 04
00:47:46.363                             : en:Chapter 05
00:59:59.387                             : en:Chapter 06
01:12:02.985                             : en:Chapter 07
01:21:07.237                             : en:Chapter 08
01:29:25.610                             : en:Chapter 09

Readme/Password

Password & My Message

Screenshots