Fast Download Mirrors

What We Do in the Shadows (2016-) • TVSeries | S03.2160p.HULU.WEB-DL.DDP5.1.x265-MIXED [27GB]

What We Do in the Shadows (2016)
What We Do in the Shadows 1800min | Comedy, Fantasy, Horror | March 27, 2019 (United States) Summary: A look into the daily (or rather, nightly) lives of three vampires, who've lived together for over 100 years, on Staten Island.
Countries: United StatesLanguages: English

A documentary-style look into the daily (or rather, nightly) lives of a group of vampires in Staten Island who have “lived” together for hundreds and hundreds of years.

Mirrors: MirrorAce, MultiUp, Gdrive[GDTOT, Sharer], Gdrive Index
Format: MKV
Credits: MIXED
Seasons-3 Complete

Download

What.We.Do.in.the.Shadows.S03E01.2160p.WEB.H265-GLHF.mkv - 2.66 GB
What.We.Do.in.the.Shadows.S03E02.2160p.WEB.H265-GGEZ.mkv - 2.53 GB
What.We.Do.in.the.Shadows.S03E03.2160p.WEB.H265-GGEZ.mkv - 2.7 GB
What.We.Do.in.the.Shadows.S03E04.2160p.Web.H265-GGWP.mkv - 2.75 GB
What.We.Do.in.the.Shadows.S03E05.2160p.WEB.H265-GLHF.mkv - 2.59 GB
What.We.Do.in.the.Shadows.S03E06.2160p.WEB.H265-GGEZ.mkv - 2.65 GB
What.We.Do.in.the.Shadows.S03E07.2160p.WEB.H265-GGEZ.mkv - 2.7 GB
What.We.Do.in.the.Shadows.S03E08.2160p.WEB.H265-CAKES.mkv - 2.75 GB
What.We.Do.in.the.Shadows.S03E09.2160p.WEB.H265-GLHF.mkv - 2.91 GB
What.We.Do.in.the.Shadows.S03E10.2160p.WEB.H265-GGEZ.mkv - 3.02 GB

[Single Folder]
https://official2.the-ambassador1.workers.dev/0:/What.We.Do.in.the.Shadows/

[Single Episodes]

https://multiup.org/228f4da95b3f019064eeb2752bd72bfe
https://multiup.org/6983b49532eb9f91c1fb9c4250898d0f
https://multiup.org/5608026c7b438a2568fbafcc9ea00109
https://multiup.org/d598c8d8a508d555c34cba18144ad2d4
https://multiup.org/e686a6048eaf16c15471a6d7050c5bbe
https://multiup.org/2bcce5ab03c352169a9d81cadfa11660
https://multiup.org/acc3eee881e438d3d5a1cca8774bd40a
https://multiup.org/8f268b1b6fb146535e71b4e3db7f7d43
https://multiup.org/c637b7abea139e910977fd51cd2c07f0
https://multiup.org/c24f4ec019e20ffe7ce7b24240e2bacd

https://mirrorace.org/m/57wl0
https://mirrorace.org/m/57wl3
https://mirrorace.org/m/4rySP
https://mirrorace.org/m/4rySQ
https://mirrorace.org/m/4rySR
https://mirrorace.org/m/4rySS
https://mirrorace.org/m/4ryST
https://mirrorace.org/m/57wlf
https://mirrorace.org/m/57wlh
https://mirrorace.org/m/57wli

https://sharer.pw/file/hCvQ-RZcqmHz
https://sharer.pw/file/Bj1SvF6NKE5u
https://sharer.pw/file/GGPf4BjEPAKZ
https://sharer.pw/file/E9-tIqL70cW1
https://sharer.pw/file/X5IdzjsioYEB
https://sharer.pw/file/4hqoDyIoBRLg
https://sharer.pw/file/n_aHMXXp0WdI
https://sharer.pw/file/DO_dbKW0uOOJ
https://sharer.pw/file/M-n9OpvBDLra
https://sharer.pw/file/u7ger6oTNebx

https://new.gdtot.org/file/3008520688
https://new.gdtot.org/file/3241770459
https://new.gdtot.org/file/3122100346
https://new.gdtot.org/file/2952532267
https://new.gdtot.org/file/2895881214
https://new.gdtot.org/file/2784222964
https://new.gdtot.org/file/2947743622
https://new.gdtot.org/file/2840278509
https://new.gdtot.org/file/2897663615
https://new.gdtot.org/file/2719222397
https://new.gdtot.org/file/2853601755
Video
ID : 1
Format : HEVC
Format/Info : High Efficiency Video Coding
Format profile : Main 10@L5.1@Main
Codec ID : V_MPEGH/ISO/HEVC
Duration : 27 min 44 s
Bit rate : 15.0 Mb/s
Width : 3 840 pixels
Height : 2 160 pixels
Display aspect ratio : 16:9
Frame rate mode : Constant
Frame rate : 23.976 (24000/1001) FPS
Color space : YUV
Chroma subsampling : 4:2:0
Bit depth : 10 bits
Bits/(Pixel*Frame) : 0.076
Stream size : 2.91 GiB (96%)
Default : Yes
Forced : No

Audio
ID : 2
Format : E-AC-3
Format/Info : Enhanced AC-3
Commercial name : Dolby Digital Plus
Codec ID : A_EAC3
Duration : 27 min 44 s
Bit rate mode : Constant
Bit rate : 256 kb/s
Channel(s) : 6 channels
Channel layout : L R C LFE Ls Rs
Sampling rate : 48.0 kHz
Frame rate : 31.250 FPS (1536 SPF)
Compression mode : Lossy
Delay relative to video : 24 ms
Stream size : 50.8 MiB (2%)
Language : English
Service kind : Complete Main
Default : Yes
Forced : No

Text
ID : 3
Format : UTF-8
Codec ID : S_TEXT/UTF8
Codec ID/Info : UTF-8 Plain Text
Title : English
Language : English
Default : No
Forced : No

WHAT WE DO IN THE SHADOWS (2016-) • TVSERIES | S01-02.1080P.WEB.10BIT.HEVC-D3G
https://ambassadorddl.site/what-we-do-in-the-shadows-tvseries-s01-02-1080p-web-10bit-hevc-d3g/
Readme/Password

Password & My Message

Screenshots