Fast Download Mirrors

Yakuza Princess (2021) • Movie | 2160p.UHD.Remux.HEVC.DoVi.TrueHD.Atmos.7.1-playBD [66GB]

Yakuza Princess (2021) • Movie
Yakuza Princess Thriller | October 7, 2021 (Brazil) Summary: The heiress to half of the Yakuza crime syndicate forges an uneasy alliance with an amnesiac stranger who believes an ancient sword binds their two fates. She must unleash war against the ot... Read all
Countries: BrazilLanguages: English

In Brazil, Akemi finds out that she’s the heiress to the Yakuza empire. Just after that, her destiny enters a spiral of violence and mystery, where a gaijin (foreigner) who’s been protecting her all this time, Shirô, may have been actually sent to kill her.

Mirrors: 1fichier, Gdrive[GDTOT, Sharer], Gdrive Index
Format: MKV
Credits: playBD

Download

Complete name                            : Yakuza.Princess.2021.2160p.UHD.Remux.HEVC.DoVi.TrueHD.Atmos.7.1-playBD.mkv
Format                                   : Matroska
Format version                           : Version 4
File size                                : 66.6 GiB
Duration                                 : 1 h 51 min
Overall bit rate mode                    : Variable
Overall bit rate                         : 85.7 Mb/s
Movie name                               : YAKUZA PRINCESS
Encoded date                             : UTC 2021-11-09 21:58:39
Writing application                      : mkvmerge v62.0.0 ('Apollo') 64-bit
Writing library                          : libebml v1.4.2 + libmatroska v1.6.4

Video
ID                                       : 1
ID in the original source medium         : 4113 (0x1011)
Format                                   : HEVC
Format/Info                              : High Efficiency Video Coding
Format profile                           : Main 10@L5.1@High
HDR format                               : Dolby Vision, Version 1.0, dvhe.07.06, BL+EL+RPU, Blu-ray compatible / SMPTE ST 2086, HDR10 compatible
Codec ID                                 : V_MPEGH/ISO/HEVC
Duration                                 : 1 h 51 min
Bit rate                                 : 80.1 Mb/s
Width                                    : 3 840 pixels
Height                                   : 2 160 pixels
Display aspect ratio                     : 16:9
Frame rate mode                          : Constant
Frame rate                               : 23.976 (24000/1001) FPS
Color space                              : YUV
Chroma subsampling                       : 4:2:0 (Type 2)
Bit depth                                : 10 bits
Bits/(Pixel*Frame)                       : 0.403
Stream size                              : 62.2 GiB (93%)
Language                                 : English
Default                                  : No
Forced                                   : No
Color range                              : Limited
Color primaries                          : BT.2020
Transfer characteristics                 : PQ
Matrix coefficients                      : BT.2020 non-constant
Mastering display color primaries        : Display P3
Mastering display luminance              : min: 0.0001 cd/m2, max: 1000 cd/m2
Original source medium                   : Blu-ray

Audio #1
ID                                       : 2
ID in the original source medium         : 4352 (0x1100)
Format                                   : MLP FBA 16-ch
Format/Info                              : Meridian Lossless Packing FBA with 16-channel presentation
Commercial name                          : Dolby TrueHD with Dolby Atmos
Codec ID                                 : A_TRUEHD
Duration                                 : 1 h 51 min
Bit rate mode                            : Variable
Bit rate                                 : 5 055 kb/s
Maximum bit rate                         : 8 349 kb/s
Channel(s)                               : 8 channels
Channel layout                           : L R C LFE Ls Rs Lb Rb
Sampling rate                            : 48.0 kHz
Frame rate                               : 1 200.000 FPS (40 SPF)
Bit depth                                : 24 bits
Compression mode                         : Lossless
Stream size                              : 3.93 GiB (6%)
Title                                    : Surround 7.1
Language                                 : English
Default                                  : Yes
Forced                                   : No
Original source medium                   : Blu-ray
Number of dynamic objects                : 15
Bed channel count                        : 1 channel
Bed channel configuration                : LFE

Audio #2
ID                                       : 3
ID in the original source medium         : 4352 (0x1100)
Format                                   : AC-3
Format/Info                              : Audio Coding 3
Commercial name                          : Dolby Digital
Codec ID                                 : A_AC3
Duration                                 : 1 h 51 min
Bit rate mode                            : Constant
Bit rate                                 : 448 kb/s
Channel(s)                               : 6 channels
Channel layout                           : L R C LFE Ls Rs
Sampling rate                            : 48.0 kHz
Frame rate                               : 31.250 FPS (1536 SPF)
Compression mode                         : Lossy
Stream size                              : 356 MiB (1%)
Title                                    : Surround 5.1
Language                                 : English
Service kind                             : Complete Main
Default                                  : No
Forced                                   : No
Original source medium                   : Blu-ray

Text #1
ID                                       : 4
ID in the original source medium         : 4768 (0x12A0)
Format                                   : PGS
Codec ID                                 : S_HDMV/PGS
Codec ID/Info                            : Picture based subtitle format used on BDs/HD-DVDs
Duration                                 : 1 h 28 min
Bit rate                                 : 10.1 kb/s
Count of elements                        : 442
Stream size                              : 6.39 MiB (0%)
Language                                 : English
Default                                  : No
Forced                                   : No
Original source medium                   : Blu-ray

Text #2
ID                                       : 5
ID in the original source medium         : 4769 (0x12A1)
Format                                   : PGS
Codec ID                                 : S_HDMV/PGS
Codec ID/Info                            : Picture based subtitle format used on BDs/HD-DVDs
Duration                                 : 1 h 44 min
Bit rate                                 : 34.8 kb/s
Count of elements                        : 1716
Stream size                              : 26.0 MiB (0%)
Language                                 : English
Default                                  : No
Forced                                   : No
Original source medium                   : Blu-ray

Text #3
ID                                       : 6
Format                                   : UTF-8
Codec ID                                 : S_TEXT/UTF8
Codec ID/Info                            : UTF-8 Plain Text
Duration                                 : 1 h 41 min
Bit rate                                 : 22 b/s
Count of elements                        : 567
Stream size                              : 16.4 KiB (0%)
Language                                 : Romanian
Default                                  : No
Forced                                   : No

Menu
00:00:00.000                             : en:Chapter 01
00:07:52.263                             : en:Chapter 02
00:13:39.527                             : en:Chapter 03
00:20:18.133                             : en:Chapter 04
00:30:25.031                             : en:Chapter 05
00:39:51.472                             : en:Chapter 06
00:45:36.942                             : en:Chapter 07
00:53:15.275                             : en:Chapter 08
01:02:26.868                             : en:Chapter 09
01:12:37.019                             : en:Chapter 10
01:19:56.416                             : en:Chapter 11
01:27:04.719                             : en:Chapter 12
01:34:23.324                             : en:Chapter 13
01:43:29.661                             : en:Chapter 14

Readme/Password

Password & My Message