Fast Download Mirrors

Only Murders in the Building (2021-) • TVSeries | S01.2160p.HULU.WEB-DL.x265.10bit.HDR10+.DDP5.1-FLUX

Only Murders in the Building (2021)
Only Murders in the Building Comedy, Crime, Drama, Mystery, Thriller | August 31, 2021 (United States) Summary: Three strangers who share an obsession with true crime suddenly find themselves caught up in one.
Countries: United StatesLanguages: English, American Sign Language

Three strangers who share an obsession with true crime suddenly find themselves caught up in one.

Mirrors: MultiUp, Gdrive[GDTOT], Gdrive Index
Format: MKV 
Season-1 Complete
Credits: FLUX

Download

Only.Murders.in.the.Building.S01E10.Open.and.Shut.2160p.HULU.WEB-DL.DDP5.1.DV.HEVC-FLUX.mkv - 1.51 GB
Only.Murders.in.the.Building.S01E07.The.Boy.from.6B.2160p.HULU.WEB-DL.DDP5.1.DV.HEVC-FLUX.mkv - 1.41 GB
Only.Murders.in.the.Building.S01E09.Double.Time.2160p.HULU.WEB-DL.DDP5.1.DV.HEVC-FLUX.mkv - 1.56 GB
Only.Murders.in.the.Building.S01E04.The.Sting.2160p.HULU.WEB-DL.DDP5.1.DV.HEVC-FLUX.mkv - 1.5 GB
Only.Murders.in.the.Building.S01E08.Fan.Fiction.2160p.HULU.WEB-DL.DDP5.1.DV.HEVC-FLUX.mkv - 1000.62 MB
Only.Murders.in.the.Building.S01E03.How.Well.Do.You.Know.Your.Neighbors.2160p.HULU.WEB-DL.DDP5.1.DV.HEVC-FLUX.mkv - 1.81 GB
Only.Murders.in.the.Building.S01E01.True.Crime.2160p.HULU.WEB-DL.DDP5.1.DV.HEVC-FLUX.mkv - 1.74 GB
Only.Murders.in.the.Building.S01E02.Who.Is.Tim.Kono.2160p.HULU.WEB-DL.DDP5.1.DV.HEVC-FLUX.mkv - 1.52 GB

Only.Murders.in.the.Building.S01E06.To.Protect.and.Serve.2160p.HULU.WEB-DL.DDP5.1.DV.HEVC-FLUX.mkv - 1.35 GB
Only.Murders.in.the.Building.S01E05.Twist.2160p.HULU.WEB-DL.DDP5.1.DV.HEVC-FLUX.mkv - 1.84 GB
 




[Single Folder][Gdrive]
https://official12.the-ambassador1.workers.dev/0:/Only.Murders.in.the.Building.S01.2160p/

https://new.gdtot.org/file/1868530943
https://new.gdtot.org/file/1629710790
https://new.gdtot.org/file/1938619149
https://new.gdtot.org/file/1614927597
https://new.gdtot.org/file/1976885501
https://new.gdtot.org/file/1450373194
https://new.gdtot.org/file/1519241421
https://new.gdtot.org/file/1049223272
https://new.gdtot.org/file/1679257443
https://new.gdtot.org/file/1617059655

https://multiup.org/0a9c4199280f490baf25e586ead5e828
https://multiup.org/73e74c359bf1b54d779609e350569119
https://multiup.org/9cc270abcbde7073cc41b931fcf0d09d
https://multiup.org/745121aec2798665029b3914af769493
https://multiup.org/e956e84631b9f02669ab914b9d8163c7
https://multiup.org/4ca6884aad9bfdeb9ad8bd48d8c1708b
https://multiup.org/3cf7fc1eedff02c4c4489fef5fb28f92
https://multiup.org/ca61b920e2654c1998598d40123beaa9
https://multiup.org/87f3688fb0fe403924c048db2890c38e
https://multiup.org/df4431b4b09883d8da779e0554d2e35b
Video
ID : 1
Format : HEVC
Format/Info : High Efficiency Video Coding
Format profile : Main 10@L5.1@Main
HDR format : Dolby Vision, Version 1.0, dvhe.08.06, BL+RPU, HDR10 compatible / SMPTE ST 2094 App 4, Version 1, HDR10+ Profile B compatible
Codec ID : V_MPEGH/ISO/HEVC
Duration : 26 min 8 s
Bit rate : 9 826 kb/s
Width : 3 840 pixels
Height : 2 160 pixels
Display aspect ratio : 16:9
Frame rate mode : Constant
Frame rate : 23.976 (24000/1001) FPS
Color space : YUV
Chroma subsampling : 4:2:0 (Type 2)
Bit depth : 10 bits
Bits/(Pixel*Frame) : 0.049
Stream size : 1.79 GiB (97%)
Default : Yes
Forced : No
Color range : Limited
Color primaries : BT.2020
Transfer characteristics : PQ
Matrix coefficients : BT.2020 non-constant
Mastering display color primaries : Display P3
Mastering display luminance : min: 0.0001 cd/m2, max: 1000 cd/m2
Maximum Content Light Level : 501 cd/m2
Maximum Frame-Average Light Level : 136 cd/m2

Audio
ID : 2
Format : E-AC-3
Format/Info : Enhanced AC-3
Commercial name : Dolby Digital Plus
Codec ID : A_EAC3
Duration : 26 min 8 s
Bit rate mode : Constant
Bit rate : 256 kb/s
Channel(s) : 6 channels
Channel layout : L R C LFE Ls Rs
Sampling rate : 48.0 kHz
Frame rate : 31.250 FPS (1536 SPF)
Compression mode : Lossy
Stream size : 47.9 MiB (3%)
Language : English
Service kind : Complete Main
Default : Yes
Forced : No

Text #1
ID : 3
Format : UTF-8
Codec ID : S_TEXT/UTF8
Codec ID/Info : UTF-8 Plain Text
Duration : 25 min 0 s
Bit rate : 104 b/s
Count of elements : 479
Stream size : 19.2 KiB (0%)
Language : English
Default : No
Forced : No

Text #2
ID : 4
Format : UTF-8
Codec ID : S_TEXT/UTF8
Codec ID/Info : UTF-8 Plain Text
Duration : 26 min 2 s
Bit rate : 105 b/s
Count of elements : 542
Stream size : 20.1 KiB (0%)
Title : SDH
Language : English
Default : No
Forced : No

Text #3
ID : 5
Format : UTF-8
Codec ID : S_TEXT/UTF8
Codec ID/Info : UTF-8 Plain Text
Duration : 26 min 3 s
Bit rate : 112 b/s
Count of elements : 559
Stream size : 21.5 KiB (0%)
Title : SDH
Language : Spanish
Default : No
Forced : No

Menu
00:04:57.000 : Chapter 1
00:11:07.000 : Chapter 2
00:18:40.000 : Chapter 3
00:25:09.000 : Chapter 4 - Credits

Readme/Password

Password & My Message

Screenshots