Fast Download Mirrors

Straight Outta Nowhere: Scooby-Doo! Meets Courage the Cowardly Dog (2021) • Movie

Straight Outta Nowhere: Scooby-Doo! Meets Courage the Cowardly Dog • TVSeries
Straight Outta Nowhere: Scooby-Doo! Meets Courage the Cowardly Dog 78min | Animation, Adventure, Comedy, Family, Fantasy, Horror, Mystery | September 14, 2021 (United States) Summary: The movie involves Scooby-Doo and his friends finding a strange object in the middle of Nowhere, Kansas, the backwoods hometown of Courage and his owners, Eustace and Muriel Bagge.
Countries: United StatesLanguages: English

The movie involves Scooby-Doo and his friends finding a strange object in the middle of Nowhere, Kansas, the backwoods hometown of Courage and his owners, Eustace and Muriel Bagge.

Mirrors: MirrorAce, MultiUp, Gdrive[GDTOT, Sharer]
Format: MKV
Credits: playWEB

Download

General
Unique ID                                : 119262710341845278526868152692334131295 (0x59B9299A3AE5E2D77971981ECB97F85F)
Complete name                            : Straight.Outta.Nowhere.Scooby-Doo.Meets.Courage.the.Cowardly.Dog.2021.1080p.AMZN.WEB-DL.DDP5.1.H.264-playWEB.mkv
Format                                   : Matroska
Format version                           : Version 4
File size                                : 3.74 GiB
Duration                                 : 1 h 18 min
Overall bit rate                         : 6 828 kb/s
Encoded date                             : UTC 2021-09-14 17:46:17
Writing application                      : mkvmerge v53.0.0 ('Fool's Gold') 64-bit
Writing library                          : libebml v1.4.1 + libmatroska v1.6.2

Video
ID                                       : 1
Format                                   : AVC
Format/Info                              : Advanced Video Codec
Format profile                           : High@L4
Format settings                          : CABAC / 4 Ref Frames
Format settings, CABAC                   : Yes
Format settings, Reference frames        : 4 frames
Codec ID                                 : V_MPEG4/ISO/AVC
Duration                                 : 1 h 18 min
Bit rate mode                            : Constant
Bit rate                                 : 6 186 kb/s
Nominal bit rate                         : 10 000 kb/s
Width                                    : 1 920 pixels
Height                                   : 1 080 pixels
Display aspect ratio                     : 16:9
Frame rate mode                          : Constant
Frame rate                               : 23.976 (24000/1001) FPS
Color space                              : YUV
Chroma subsampling                       : 4:2:0
Bit depth                                : 8 bits
Scan type                                : Progressive
Bits/(Pixel*Frame)                       : 0.124
Stream size                              : 3.39 GiB (91%)
Default                                  : Yes
Forced                                   : No
Color range                              : Limited
Color primaries                          : BT.709
Transfer characteristics                 : BT.709
Matrix coefficients                      : BT.709

Audio
ID                                       : 2
Format                                   : E-AC-3
Format/Info                              : Enhanced AC-3
Commercial name                          : Dolby Digital Plus
Codec ID                                 : A_EAC3
Duration                                 : 1 h 18 min
Bit rate mode                            : Constant
Bit rate                                 : 640 kb/s
Channel(s)                               : 6 channels
Channel layout                           : L R C LFE Ls Rs
Sampling rate                            : 48.0 kHz
Frame rate                               : 31.250 FPS (1536 SPF)
Compression mode                         : Lossy
Stream size                              : 359 MiB (9%)
Language                                 : English
Service kind                             : Complete Main
Default                                  : Yes
Forced                                   : No

Text
ID                                       : 3
Format                                   : UTF-8
Codec ID                                 : S_TEXT/UTF8
Codec ID/Info                            : UTF-8 Plain Text
Duration                                 : 1 h 18 min
Bit rate                                 : 69 b/s
Count of elements                        : 1493
Stream size                              : 39.7 KiB (0%)
Title                                    : SDH
Language                                 : English
Default                                  : No
Forced                                   : No

Readme

Password & My Message

Screenhshots