Fast Download Mirrors

Locke and Key (2020-) • TVSeries | 1080p.NF.WEBRip.DDP5.1.Atmos.x264-AGLET [15GB]

Locke and Key (2020)
Locke & Key 2880min | Drama, Fantasy, Horror, Mystery, Thriller | February 7, 2020 (United States) Summary: After their father is murdered under mysterious circumstances, the three Locke siblings and their mother move into their ancestral home, Keyhouse, which they discover is full of magical keys... Read all
Countries: Canada, United StatesLanguages: English

Three siblings who move into their ancestral estate after their father’s gruesome murder discover their new home’s magical keys, which must be used in their stand against an evil creature who wants the keys and their powers.

Mirrors: MirrorAce, MultiUp, Gdrive[GDTOT, Sharer]
Format: MKV
Credits: AGLET
Seasons-2 Complete

Download

Locke.and.Key.S02E01.The.Premiere.1080p.NF.WEB-DL.DDP5.1.Atmos.x264-AGLET.mkv - 1.83 GB
Locke.and.Key.S02E02.The.Head.and.the.Heart.1080p.NF.WEB-DL.DDP5.1.Atmos.x264-AGLET.mkv - 1.43 GB
Locke.and.Key.S02E03.Small.World.1080p.NF.WEB-DL.DDP5.1.Atmos.x264-AGLET.mkv - 1.99 GB
Locke.and.Key.S02E04.Forget.Me.Not.1080p.NF.WEB-DL.DDP5.1.Atmos.x264-AGLET.mkv - 1.69 GB
Locke.and.Key.S02E05.Past.is.Prologue.1080p.NF.WEB-DL.DDP5.1.Atmos.x264-AGLET.mkv - 1.39 GB
Locke.and.Key.S02E06.The.Maze.1080p.NF.WEB-DL.DDP5.1.Atmos.x264-AGLET.mkv - 1.42 GB
Locke.and.Key.S02E07.Best.Laid.Plans.1080p.NF.WEB-DL.DDP5.1.Atmos.x264-AGLET.mkv - 1.06 GB
Locke.and.Key.S02E08.Irons.in.the.Fire.1080p.NF.WEB-DL.DDP5.1.Atmos.x264-AGLET.mkv - 1.34 GB
Locke.and.Key.S02E09.Alpha.and.Omega.1080p.NF.WEB-DL.DDP5.1.Atmos.x264-AGLET.mkv - 1.99 GB
Locke.and.Key.S02E10.Cliffhanger.1080p.NF.WEB-DL.DDP5.1.Atmos.x264-AGLET.mkv - 1.38 GB

https://multiup.org/52dc49dd65174cd5a0999f5c5a0d5460
https://multiup.org/c465ced670cdde271ac991700d9d805a
https://multiup.org/ff1792f15e1bcdf956926981e019ed7a
https://multiup.org/4273ca917b0396f4979ea93f9491b460
https://multiup.org/1a041ae905d19ab30c49e0bcf7252ec4
https://multiup.org/6216d70b167a46baa63d634f70a98008
https://multiup.org/0f4fa40de56e8e69c958c2370c7aed50
https://multiup.org/3ba8276287677a72f21ff435872c02ab
https://multiup.org/4b923e6f46cc218878c0348d27c5c96b
https://multiup.org/d0a22d5f054210bf20b6f93cbcbdc7a6

https://mirrorace.org/m/3Ly18
https://mirrorace.org/m/3Ly1c
https://mirrorace.org/m/3Ly1e
https://mirrorace.org/m/3Ly1g
https://mirrorace.org/m/3Ly1h
https://mirrorace.org/m/3Ly1j
https://mirrorace.org/m/35Az1
https://mirrorace.org/m/35Az2
https://mirrorace.org/m/35Az3
https://mirrorace.org/m/35Az6

https://new.gdtot.org/file/1959749831
https://new.gdtot.org/file/1536255565
https://new.gdtot.org/file/2132857210
https://new.gdtot.org/file/1811328498
https://new.gdtot.org/file/1491658531
https://new.gdtot.org/file/1520063443
https://new.gdtot.org/file/1140337280
https://new.gdtot.org/file/1439910943
https://new.gdtot.org/file/2133747381
https://new.gdtot.org/file/1485386126

https://sharer.pw/file/MUNu7ulzWILg
https://sharer.pw/file/I2e1jBy0CxxS
https://sharer.pw/file/NdTRjkXYnzEe
https://sharer.pw/file/k7AZonRcK4gI
https://sharer.pw/file/KVH6sNxX6htH
https://sharer.pw/file/c1s_uWnf1sp3
https://sharer.pw/file/uWM-33QsVJDA
https://sharer.pw/file/xZ1wCwRSD6Jo
https://sharer.pw/file/02Zsjc0O49qD
https://sharer.pw/file/MxmK-6yKzzkk
Video
ID : 1
Format : AVC
Format/Info : Advanced Video Codec
Format profile : High@L4
Format settings : CABAC / 4 Ref Frames
Format settings, CABAC : Yes
Format settings, Reference frames : 4 frames
Codec ID : V_MPEG4/ISO/AVC
Duration : 49 min 55 s
Bit rate mode : Variable
Bit rate : 4 926 kb/s
Maximum bit rate : 20.0 Mb/s
Width : 1 920 pixels
Height : 1 080 pixels
Display aspect ratio : 16:9
Frame rate mode : Constant
Frame rate : 23.976 (24000/1001) FPS
Color space : YUV
Chroma subsampling : 4:2:0
Bit depth : 8 bits
Scan type : Progressive
Bits/(Pixel*Frame) : 0.099
Stream size : 1.72 GiB (86%)
Writing library : x264 core 148 r2724 dbe0335
Encoding settings : cabac=1 / ref=4 / deblock=1:0:0 / analyse=0x3:0x111 / me=umh / subme=10 / psy=1 / psy_rd=1.00:0.00 / mixed_ref=1 / me_range=120 / chroma_me=1 / trellis=2 / 8x8dct=1 / cqm=0 / deadzone=21,11 / fast_pskip=1 / chroma_qp_offset=-2 / threads=8 / lookahead_threads=2 / sliced_threads=0 / nr=0 / decimate=1 / interlaced=0 / bluray_compat=0 / stitchable=1 / constrained_intra=0 / bframes=16 / b_pyramid=2 / b_adapt=2 / b_bias=0 / direct=3 / weightb=1 / open_gop=0 / weightp=2 / keyint=240 / keyint_min=121 / scenecut=0 / intra_refresh=0 / rc_lookahead=240 / rc=crf / mbtree=1 / crf=16.0 / qcomp=0.50 / qpmin=6 / qpmax=51 / qpstep=4 / vbv_maxrate=20000 / vbv_bufsize=25000 / crf_max=0.0 / nal_hrd=vbr / filler=0 / ip_ratio=1.40 / aq=1:0.80
Default : Yes
Forced : No

Audio
ID : 2
Format : E-AC-3 JOC
Format/Info : Enhanced AC-3 with Joint Object Coding
Commercial name : Dolby Digital Plus with Dolby Atmos
Codec ID : A_EAC3
Duration : 49 min 55 s
Bit rate mode : Constant
Bit rate : 768 kb/s
Channel(s) : 6 channels
Channel layout : L R C LFE Ls Rs
Sampling rate : 48.0 kHz
Frame rate : 31.250 FPS (1536 SPF)
Compression mode : Lossy
Stream size : 274 MiB (13%)
Language : English
Service kind : Complete Main
Default : Yes
Forced : No
Complexity index : 16
Number of dynamic objects : 15
Bed channel count : 1 channel
Bed channel configuration : LFE

Text #1
ID : 3
Format : UTF-8
Codec ID : S_TEXT/UTF8
Codec ID/Info : UTF-8 Plain Text
Duration : 43 min 44 s
Bit rate : 47 b/s
Count of elements : 505
Stream size : 15.3 KiB (0%)
Language : English
Default : No
Forced : No

Text #2
ID : 4
Format : UTF-8
Codec ID : S_TEXT/UTF8
Codec ID/Info : UTF-8 Plain Text
Duration : 45 min 40 s
Bit rate : 58 b/s
Count of elements : 690
Stream size : 19.6 KiB (0%)
Title : SDH
Language : English
Default : No
Forced : No

Text #3
ID : 5
Format : UTF-8
Codec ID : S_TEXT/UTF8
Codec ID/Info : UTF-8 Plain Text
Duration : 47 min 39 s
Bit rate : 70 b/s
Count of elements : 500
Stream size : 24.5 KiB (0%)
Language : Arabic
Default : No
Forced : No

Text #4
ID : 6
Format : UTF-8
Codec ID : S_TEXT/UTF8
Codec ID/Info : UTF-8 Plain Text
Duration : 47 min 39 s
Bit rate : 40 b/s
Count of elements : 494
Stream size : 14.1 KiB (0%)
Language : Czech
Default : No
Forced : No

Text #5
ID : 7
Format : UTF-8
Codec ID : S_TEXT/UTF8
Codec ID/Info : UTF-8 Plain Text
Duration : 47 min 39 s
Bit rate : 40 b/s
Count of elements : 500
Stream size : 14.1 KiB (0%)
Language : Danish
Default : No
Forced : No

Text #6
ID : 8
Format : UTF-8
Codec ID : S_TEXT/UTF8
Codec ID/Info : UTF-8 Plain Text
Duration : 47 min 39 s
Bit rate : 40 b/s
Count of elements : 494
Stream size : 14.3 KiB (0%)
Language : German
Default : No
Forced : No

Text #7
ID : 9
Format : UTF-8
Codec ID : S_TEXT/UTF8
Codec ID/Info : UTF-8 Plain Text
Duration : 47 min 39 s
Bit rate : 66 b/s
Count of elements : 492
Stream size : 23.3 KiB (0%)
Language : Greek
Default : No
Forced : No

Text #8
ID : 10
Format : UTF-8
Codec ID : S_TEXT/UTF8
Codec ID/Info : UTF-8 Plain Text
Duration : 47 min 39 s
Bit rate : 38 b/s
Count of elements : 512
Stream size : 13.6 KiB (0%)
Language : Spanish
Default : No
Forced : No

Text #9
ID : 11
Format : UTF-8
Codec ID : S_TEXT/UTF8
Codec ID/Info : UTF-8 Plain Text
Duration : 47 min 39 s
Bit rate : 39 b/s
Count of elements : 501
Stream size : 13.8 KiB (0%)
Title : European
Language : Spanish
Default : No
Forced : No

Text #10
ID : 12
Format : UTF-8
Codec ID : S_TEXT/UTF8
Codec ID/Info : UTF-8 Plain Text
Duration : 47 min 39 s
Bit rate : 38 b/s
Count of elements : 449
Stream size : 13.4 KiB (0%)
Language : Finnish
Default : No
Forced : No

Text #11
ID : 13
Format : UTF-8
Codec ID : S_TEXT/UTF8
Codec ID/Info : UTF-8 Plain Text
Duration : 47 min 37 s
Bit rate : 41 b/s
Count of elements : 468
Stream size : 14.6 KiB (0%)
Language : French
Default : No
Forced : No

Text #12
ID : 14
Format : UTF-8
Codec ID : S_TEXT/UTF8
Codec ID/Info : UTF-8 Plain Text
Duration : 47 min 39 s
Bit rate : 67 b/s
Count of elements : 497
Stream size : 23.4 KiB (0%)
Language : Hebrew
Default : No
Forced : No

Text #13
ID : 15
Format : UTF-8
Codec ID : S_TEXT/UTF8
Codec ID/Info : UTF-8 Plain Text
Duration : 47 min 39 s
Bit rate : 37 b/s
Count of elements : 491
Stream size : 12.9 KiB (0%)
Language : Croatian
Default : No
Forced : No

Text #14
ID : 16
Format : UTF-8
Codec ID : S_TEXT/UTF8
Codec ID/Info : UTF-8 Plain Text
Duration : 47 min 39 s
Bit rate : 39 b/s
Count of elements : 492
Stream size : 13.7 KiB (0%)
Language : Hungarian
Default : No
Forced : No

Text #15
ID : 17
Format : UTF-8
Codec ID : S_TEXT/UTF8
Codec ID/Info : UTF-8 Plain Text
Duration : 47 min 39 s
Bit rate : 40 b/s
Count of elements : 497
Stream size : 14.0 KiB (0%)
Language : Indonesian
Default : No
Forced : No

Text #16
ID : 18
Format : UTF-8
Codec ID : S_TEXT/UTF8
Codec ID/Info : UTF-8 Plain Text
Duration : 47 min 39 s
Bit rate : 40 b/s
Count of elements : 496
Stream size : 14.1 KiB (0%)
Language : Italian
Default : No
Forced : No

Text #17
ID : 19
Format : UTF-8
Codec ID : S_TEXT/UTF8
Codec ID/Info : UTF-8 Plain Text
Duration : 47 min 37 s
Bit rate : 42 b/s
Count of elements : 507
Stream size : 14.9 KiB (0%)
Language : Japanese
Default : No
Forced : No

Text #18
ID : 20
Format : UTF-8
Codec ID : S_TEXT/UTF8
Codec ID/Info : UTF-8 Plain Text
Duration : 47 min 37 s
Bit rate : 50 b/s
Count of elements : 509
Stream size : 17.7 KiB (0%)
Language : Korean
Default : No
Forced : No

Text #19
ID : 21
Format : UTF-8
Codec ID : S_TEXT/UTF8
Codec ID/Info : UTF-8 Plain Text
Duration : 47 min 39 s
Bit rate : 40 b/s
Count of elements : 501
Stream size : 14.2 KiB (0%)
Language : Malay
Default : No
Forced : No

Text #20
ID : 22
Format : UTF-8
Codec ID : S_TEXT/UTF8
Codec ID/Info : UTF-8 Plain Text
Duration : 47 min 39 s
Bit rate : 37 b/s
Count of elements : 473
Stream size : 13.1 KiB (0%)
Language : Norwegian Bokmal
Default : No
Forced : No

Text #21
ID : 23
Format : UTF-8
Codec ID : S_TEXT/UTF8
Codec ID/Info : UTF-8 Plain Text
Duration : 47 min 39 s
Bit rate : 40 b/s
Count of elements : 464
Stream size : 14.0 KiB (0%)
Language : Dutch
Default : No
Forced : No

Text #22
ID : 24
Format : UTF-8
Codec ID : S_TEXT/UTF8
Codec ID/Info : UTF-8 Plain Text
Duration : 47 min 39 s
Bit rate : 37 b/s
Count of elements : 494
Stream size : 13.2 KiB (0%)
Language : Polish
Default : No
Forced : No

Text #23
ID : 25
Format : UTF-8
Codec ID : S_TEXT/UTF8
Codec ID/Info : UTF-8 Plain Text
Duration : 47 min 39 s
Bit rate : 38 b/s
Count of elements : 496
Stream size : 13.5 KiB (0%)
Language : Portuguese
Default : No
Forced : No

Text #24
ID : 26
Format : UTF-8
Codec ID : S_TEXT/UTF8
Codec ID/Info : UTF-8 Plain Text
Duration : 47 min 41 s
Bit rate : 40 b/s
Count of elements : 503
Stream size : 14.1 KiB (0%)
Title : Brazilian
Language : Portuguese
Default : No
Forced : No

Text #25
ID : 27
Format : UTF-8
Codec ID : S_TEXT/UTF8
Codec ID/Info : UTF-8 Plain Text
Duration : 47 min 39 s
Bit rate : 43 b/s
Count of elements : 483
Stream size : 15.2 KiB (0%)
Language : Romanian
Default : No
Forced : No

Text #26
ID : 28
Format : UTF-8
Codec ID : S_TEXT/UTF8
Codec ID/Info : UTF-8 Plain Text
Duration : 47 min 37 s
Bit rate : 62 b/s
Count of elements : 492
Stream size : 21.9 KiB (0%)
Language : Russian
Default : No
Forced : No

Text #27
ID : 29
Format : UTF-8
Codec ID : S_TEXT/UTF8
Codec ID/Info : UTF-8 Plain Text
Duration : 47 min 37 s
Bit rate : 39 b/s
Count of elements : 468
Stream size : 13.9 KiB (0%)
Language : Swedish
Default : No
Forced : No

Text #28
ID : 30
Format : UTF-8
Codec ID : S_TEXT/UTF8
Codec ID/Info : UTF-8 Plain Text
Duration : 47 min 39 s
Bit rate : 105 b/s
Count of elements : 499
Stream size : 37.0 KiB (0%)
Language : Thai
Default : No
Forced : No

Text #29
ID : 31
Format : UTF-8
Codec ID : S_TEXT/UTF8
Codec ID/Info : UTF-8 Plain Text
Duration : 47 min 39 s
Bit rate : 41 b/s
Count of elements : 494
Stream size : 14.6 KiB (0%)
Language : Turkish
Default : No
Forced : No

Text #30
ID : 32
Format : UTF-8
Codec ID : S_TEXT/UTF8
Codec ID/Info : UTF-8 Plain Text
Duration : 47 min 39 s
Bit rate : 64 b/s
Count of elements : 497
Stream size : 22.7 KiB (0%)
Language : Ukrainian
Default : No
Forced : No

Text #31
ID : 33
Format : UTF-8
Codec ID : S_TEXT/UTF8
Codec ID/Info : UTF-8 Plain Text
Duration : 47 min 39 s
Bit rate : 58 b/s
Count of elements : 500
Stream size : 20.4 KiB (0%)
Language : Vietnamese
Default : No
Forced : No

Text #32
ID : 34
Format : UTF-8
Codec ID : S_TEXT/UTF8
Codec ID/Info : UTF-8 Plain Text
Duration : 47 min 39 s
Bit rate : 46 b/s
Count of elements : 500
Stream size : 16.3 KiB (0%)
Title : Simplified
Language : Chinese
Default : No
Forced : No

Text #33
ID : 35
Format : UTF-8
Codec ID : S_TEXT/UTF8
Codec ID/Info : UTF-8 Plain Text
Duration : 47 min 39 s
Bit rate : 42 b/s
Count of elements : 505
Stream size : 15.0 KiB (0%)
Title : Traditional
Language : Chinese
Default : No
Forced : No

Readme/Password

Password & My Message

Screenshots